Come as a Guest Stay As a Family::
DeaR Friends
Come as a guest Stay As a Family Radio FM157 is a your music home just listen and enjoying.
Please Join Our Radio FM157 with Song Dedication to Ur Loves , PoeTry, GuPshaP.So Please Register Now

[HTTP] Ittefaq (2017) 1CD DVDScr x264 [335MB] 1 Link

View previous topic View next topic Go down

[HTTP] Ittefaq (2017) 1CD DVDScr x264 [335MB] 1 Link

Post  Rabasha on Sat Nov 04, 2017 2:06 pm








IMDB:
Code:
http://www.imdb.com/title/tt6692354/

Code:
General
Complete name                            : Ittefaq.2017.1CD.DVDScr.x264.335MB.By.Rj.Rabasha.mkv
Format                                   : Matroska
Format version                           : Version 1
File size                                : 335 MiB
Duration                                 : 1 h 41 min
Overall bit rate mode                    : Variable
Overall bit rate                         : 463 kb/s
Encoded date                             : UTC 2017-11-04 02:47:07
Writing library                          : WonderShare Matroska Muxer

Video
ID                                       : 1
Format                                   : AVC
Format/Info                              : Advanced Video Codec
Format profile                           : High@L3.1
Format settings                          : CABAC / 1 Ref Frames
Format settings, CABAC                   : Yes
Format settings, RefFrames               : 1 frame
Format settings, GOP                     : M=3, N=24
Codec ID                                 : V_MPEG4/ISO/AVC
Duration                                 : 1 h 41 min
Bit rate mode                            : Variable
Bit rate                                 : 374 kb/s
Maximum bit rate                         : 576 kb/s
Width                                    : 480 pixels
Height                                   : 184 pixels
Display aspect ratio                     : 2.609
Frame rate mode                          : Constant
Frame rate                               : 25.000 FPS
Color space                              : YUV
Chroma subsampling                       : 4:2:0
Bit depth                                : 8 bits
Scan type                                : Progressive
Bits/(Pixel*Frame)                       : 0.169
Stream size                              : 271 MiB (81%)
Default                                  : Yes
Forced                                   : No

Audio
ID                                       : 2
Format                                   : MPEG Audio
Format version                           : Version 1
Format profile                           : Layer 3
Codec ID                                 : A_MPEG/L3
Codec ID/Hint                            : MP3
Duration                                 : 1 h 41 min
Bit rate mode                            : Constant
Bit rate                                 : 80.0 kb/s
Channel(s)                               : 1 channel
Sampling rate                            : 44.1 kHz
Compression mode                         : Lossy
Stream size                              : 57.9 MiB (17%)
Writing library                          : LAME3.98.2
Default                                  : Yes
Forced                                   : No

















Code:
https://openload.co/f/R8Kl7t3eCuQ



Code:
https://bdupload.info/q67dvrdofaf8



Code:
http://www.indishare.me/diy9fl3zkdb6



Code:
https://uptobox.com/8murp109r5sx










Last edited by Rabasha on Sun Nov 12, 2017 8:29 am; edited 2 times in total (Reason for editing : Backup1 Updated)

Rabasha

Posts : 743
Join date : 2012-12-10

View user profile

Back to top Go down

View previous topic View next topic Back to top

- Similar topics

 
Permissions in this forum:
You cannot reply to topics in this forum