Come as a Guest Stay As a Family::
DeaR Friends
Come as a guest Stay As a Family Radio FM157 is a your music home just listen and enjoying.
Please Join Our Radio FM157 with Song Dedication to Ur Loves , PoeTry, GuPshaP.So Please Register Now

[HTTP] Thor: Ragnarok (2017) HDCAM x264 [700MB] 1 Link

View previous topic View next topic Go down

[HTTP] Thor: Ragnarok (2017) HDCAM x264 [700MB] 1 Link

Post  Rabasha on Mon Oct 30, 2017 11:08 am








IMDB:
Code:
http://www.imdb.com/title/tt3501632/

Code:
General
Unique ID                                : 231504830141247217779560267804738072820 (0xAE2A355DE4657F7BA9E8356F4A6C30F4)
Complete name                            : Thor.Ragnarok.2017.HDCAM.x264.700MB.By.Rj.Rabasha.mkv
Format                                  : Matroska
Format version                          : Version 4 / Version 2
File size                                : 693 MiB
Duration                                : 2 h 0 min
Overall bit rate                        : 805 kb/s
Encoded date                            : UTC 2017-10-29 05:05:50
Writing application                      : mkvmerge v7.0.0 ('Where We Going') 32bit built on Jun  9 2014 15:08:34
Writing library                          : libebml v1.3.0 + libmatroska v1.4.1

Video
ID                                      : 1
Format                                  : AVC
Format/Info                              : Advanced Video Codec
Format profile                          : High@L3.1
Format settings                          : CABAC / 5 Ref Frames
Format settings, CABAC                  : Yes
Format settings, RefFrames              : 5 frames
Codec ID                                : V_MPEG4/ISO/AVC
Duration                                : 2 h 0 min
Bit rate                                : 640 kb/s
Width                                    : 720 pixels
Height                                  : 384 pixels
Display aspect ratio                    : 2.221
Original display aspect ratio            : 2.222
Frame rate mode                          : Constant
Frame rate                              : 30.000 FPS
Color space                              : YUV
Chroma subsampling                      : 4:2:0
Bit depth                                : 8 bits
Scan type                                : Progressive
Bits/(Pixel*Frame)                      : 0.077
Stream size                              : 553 MiB (80%)
Title                                    : www.TamilMV.re
Writing library                          : x264 core 148 r2643 5c65704
Encoding settings                        : cabac=1 / ref=5 / deblock=1:0:0 / analyse=0x3:0x113 / me=hex / subme=7 / psy=1 / psy_rd=1.00:0.00 / mixed_ref=1 / me_range=16 / chroma_me=1 / trellis=1 / 8x8dct=1 / cqm=0 / deadzone=21,11 / fast_pskip=1 / chroma_qp_offset=-2 / threads=6 / lookahead_threads=6 / sliced_threads=1 / slices=6 / nr=0 / decimate=1 / interlaced=0 / bluray_compat=0 / constrained_intra=0 / bframes=0 / weightp=2 / keyint=250 / keyint_min=25 / scenecut=40 / intra_refresh=0 / rc=abr / mbtree=0 / bitrate=640 / ratetol=1.0 / qcomp=0.60 / qpmin=0 / qpmax=69 / qpstep=4 / ip_ratio=1.40 / aq=1:1.00
Language                                : English
Default                                  : Yes
Forced                                  : No

Audio
ID                                      : 2
Format                                  : AAC
Format/Info                              : Advanced Audio Codec
Format profile                          : LC
Codec ID                                : A_AAC-2
Duration                                : 2 h 0 min
Bit rate                                : 160 kb/s
Channel(s)                              : 2 channels
Channel positions                        : Front: L R
Sampling rate                            : 48.0 kHz
Frame rate                              : 46.875 FPS (1024 SPF)
Compression mode                        : Lossy
Delay relative to video                  : -21 ms
Stream size                              : 138 MiB (20%)
Language                                : English
Default                                  : Yes
Forced                                  : No

















Code:
https://bdupload.info/cjj2j1eijazt



Code:
http://www.indishare.me/6gavkqh0kady



Code:
http://katfile.com/jc881breogpk/Backup0.Thor.Ragnarok.2017.HDCAM.x264.700MB.By.Rj.Rabasha.mkv.html








Rabasha

Posts : 743
Join date : 2012-12-10

View user profile

Back to top Go down

View previous topic View next topic Back to top

- Similar topics

 
Permissions in this forum:
You cannot reply to topics in this forum