Come as a Guest Stay As a Family::
DeaR Friends
Come as a guest Stay As a Family Radio FM157 is a your music home just listen and enjoying.
Please Join Our Radio FM157 with Song Dedication to Ur Loves , PoeTry, GuPshaP.So Please Register Now

[HTTP] Toilet: Ek Prem Katha (2017) 1CD DVDRip x264 ESubs [700MB] 1 Link

View previous topic View next topic Go down

[HTTP] Toilet: Ek Prem Katha (2017) 1CD DVDRip x264 ESubs [700MB] 1 Link

Post  Rabasha on Thu Oct 26, 2017 7:27 am








IMDB:
Code:
http://www.imdb.com/title/tt5785170/

Code:
General
Unique ID                                : 200962842055632686209591616747486539356 (0x97300917FF2798C191B30578267F6E5C)
Complete name                            : Toilet.Ek.Prem.Katha.2017.1CD.DVDRip.x264.ESubs.By.Rj.Rabasha.mkv
Format                                   : Matroska
Format version                           : Version 4 / Version 2
File size                                : 708 MiB
Duration                                 : 2 h 33 min
Overall bit rate                         : 646 kb/s
Movie name                               : Toilet Ek Prem Katha (2017) - 1CD - DVD-Rip - Hindi - x264 - MP3 - Mafiaking - M2Tv
Encoded date                             : UTC 2017-10-25 15:10:59
Writing application                      : mkvmerge v7.0.0 ('Where We Going') 32bit built on Jun  9 2014 15:08:34
Writing library                          : libebml v1.3.0 + libmatroska v1.4.1

Video
ID                                       : 1
Format                                   : AVC
Format/Info                              : Advanced Video Codec
Format profile                           : High@L3
Format settings                          : CABAC / 4 Ref Frames
Format settings, CABAC                   : Yes
Format settings, RefFrames               : 4 frames
Codec ID                                 : V_MPEG4/ISO/AVC
Duration                                 : 2 h 33 min
Bit rate                                 : 580 kb/s
Width                                    : 640 pixels
Height                                   : 272 pixels
Display aspect ratio                     : 2.35:1
Frame rate mode                          : Constant
Frame rate                               : 29.970 (30000/1001) FPS
Color space                              : YUV
Chroma subsampling                       : 4:2:0
Bit depth                                : 8 bits
Scan type                                : Progressive
Bits/(Pixel*Frame)                       : 0.111
Stream size                              : 636 MiB (90%)
Writing library                          : x264 core 142 r2431 ac76440
Encoding settings                        : cabac=1 / ref=3 / deblock=1:0:0 / analyse=0x3:0x113 / me=hex / subme=7 / psy=1 / psy_rd=1.00:0.00 / mixed_ref=1 / me_range=16 / chroma_me=1 / trellis=1 / 8x8dct=1 / cqm=0 / deadzone=21,11 / fast_pskip=1 / chroma_qp_offset=-2 / threads=12 / lookahead_threads=2 / sliced_threads=0 / nr=0 / decimate=1 / interlaced=0 / bluray_compat=0 / constrained_intra=0 / bframes=3 / b_pyramid=2 / b_adapt=1 / b_bias=0 / direct=1 / weightb=1 / open_gop=0 / weightp=2 / keyint=300 / keyint_min=29 / scenecut=40 / intra_refresh=0 / rc_lookahead=40 / rc=2pass / mbtree=1 / bitrate=580 / ratetol=1.0 / qcomp=0.60 / qpmin=0 / qpmax=69 / qpstep=4 / cplxblur=20.0 / qblur=0.5 / ip_ratio=1.40 / aq=1:1.00
Default                                  : Yes
Forced                                   : No

Audio
ID                                       : 2
Format                                   : MPEG Audio
Format version                           : Version 2
Format profile                           : Layer 3
Format settings                          : Joint stereo / MS Stereo
Mode                                     : Joint stereo
Mode extension                           : MS Stereo
Codec ID                                 : A_MPEG/L3
Codec ID/Hint                            : MP3
Duration                                 : 2 h 33 min
Bit rate mode                            : Constant
Bit rate                                 : 64.0 kb/s
Channel(s)                               : 2 channels
Sampling rate                            : 24.0 kHz
Frame rate                               : 41.667 FPS (576 SPF)
Compression mode                         : Lossy
Stream size                              : 70.2 MiB (10%)
Title                                    : Mafiaking
Writing library                          : LAME3.99r
Encoding settings                        : -m j -V 4 -q 2 -lowpass 11 -b 64
Language                                 : Hindi
Default                                  : Yes
Forced                                   : No
























Code:
https://openload.co/f/RG6foEwMS2c



Code:
https://bdupload.info/4lrkxisa6o2b



Code:
http://www.indishare.me/mf6ohfh6ntn6



Code:
http://katfile.com/nbookansz2gd/Backup1.Toilet.Ek.Prem.Katha.2017.1CD.DVDRip.x264.ESubs.By.Rj.Rabasha.zip.html









Last edited by Rabasha on Wed Nov 01, 2017 6:30 am; edited 2 times in total (Reason for editing : links updated [01-Nov-2017]............)

Rabasha

Posts : 743
Join date : 2012-12-10

View user profile

Back to top Go down

View previous topic View next topic Back to top

- Similar topics

 
Permissions in this forum:
You cannot reply to topics in this forum