Come as a Guest Stay As a Family::
DeaR Friends
Come as a guest Stay As a Family Radio FM157 is a your music home just listen and enjoying.
Please Join Our Radio FM157 with Song Dedication to Ur Loves , PoeTry, GuPshaP.So Please Register Now

[HTTP] Pakistan Vs Srilanka (2017) All ODI's HD Highlights

View previous topic View next topic Go down

[HTTP] Pakistan Vs Srilanka (2017) All ODI's HD Highlights

Post  Rabasha on Tue Oct 24, 2017 1:26 pm














Info:
Code:
General
Complete name                            : Pakistan.Vs.Srilanka.2017.1st.ODI.HD.Highlights.By.Rj.Rabasha.mp4
Format                                   : dash
Codec ID                                 : dash (iso6/avc1/mp41)
File size                                : 115 MiB
Duration                                 : 39 min 49 s
Overall bit rate                         : 403 kb/s
Encoded date                             : UTC 2017-10-15 07:48:32
Tagged date                              : UTC 2017-10-15 07:48:32

Video
ID                                       : 1
Format                                   : AVC
Format/Info                              : Advanced Video Codec
Format profile                           : Main@L3
Format settings                          : CABAC / 3 Ref Frames
Format settings, CABAC                   : Yes
Format settings, RefFrames               : 3 frames
Codec ID                                 : avc1
Codec ID/Info                            : Advanced Video Coding
Duration                                 : 39 min 49 s
Bit rate                                 : 400 kb/s
Width                                    : 546 pixels
Height                                   : 480 pixels
Display aspect ratio                     : 1.138
Frame rate mode                          : Constant
Frame rate                               : 25.000 FPS
Color space                              : YUV
Chroma subsampling                       : 4:2:0
Bit depth                                : 8 bits
Scan type                                : Progressive
Bits/(Pixel*Frame)                       : 0.061
Stream size                              : 114 MiB (99%)
Encoded date                             : UTC 2017-10-15 07:48:32
Tagged date                              : UTC 2017-10-15 07:48:32
Color range                              : Limited
Color primaries                          : BT.601 PAL
Matrix coefficients                      : BT.470 System B, BT.470 System G









Code:
https://openload.co/f/8pzGlfl3Z98



Code:
https://bdupload.info/z3g180ri3h6y



Code:
http://www.indishare.me/ives0jtucopg



Code:
http://katfile.com/pyh2lyau5lpj/Pakistan.Vs.Srilanka.2017.1st.ODI.HD.Highlights.By.Rj.Rabasha.mp4.html













Info:
Code:
General
Complete name                            : Pakistan.Vs.Srilanka.2017.2nd.ODI.HD.Highlights.By.Rj.Rabasha.mp4
Format                                   : dash
Codec ID                                 : dash (iso6/avc1/mp41)
File size                                : 149 MiB
Duration                                 : 37 min 59 s
Overall bit rate                         : 549 kb/s
Encoded date                             : UTC 2017-10-18 02:13:37
Tagged date                              : UTC 2017-10-18 02:13:37

Video
ID                                       : 1
Format                                   : AVC
Format/Info                              : Advanced Video Codec
Format profile                           : Main@L3.1
Format settings                          : CABAC / 3 Ref Frames
Format settings, CABAC                   : Yes
Format settings, RefFrames               : 3 frames
Codec ID                                 : avc1
Codec ID/Info                            : Advanced Video Coding
Duration                                 : 37 min 59 s
Bit rate                                 : 546 kb/s
Width                                    : 854 pixels
Height                                   : 480 pixels
Display aspect ratio                     : 16:9
Frame rate mode                          : Constant
Frame rate                               : 29.970 (30000/1001) FPS
Color space                              : YUV
Chroma subsampling                       : 4:2:0
Bit depth                                : 8 bits
Scan type                                : Progressive
Bits/(Pixel*Frame)                       : 0.044
Stream size                              : 148 MiB (99%)
Encoded date                             : UTC 2017-10-18 02:13:37
Tagged date                              : UTC 2017-10-18 02:13:37
Color range                              : Limited
Color primaries                          : BT.601 NTSC
Transfer characteristics                 : BT.601
Matrix coefficients                      : BT.601









Code:
https://openload.co/f/kdZ0IRG9ZLs



Code:
https://bdupload.info/ff0pqcbqs174



Code:
http://www.indishare.me/2vmz8acod3gf



Code:
http://katfile.com/x33lt76syqgb/Pakistan.Vs.Srilanka.2017.2nd.ODI.HD.Highlights.By.Rj.Rabasha.mp4.html













Info:
Code:
General
Complete name                            : Pakistan.Vs.Srilanka.2017.3rd.ODI.HD.Highlights.By.Rj.Rabasha.mp4
Format                                   : dash
Codec ID                                 : dash (iso6/avc1/mp41)
File size                                : 198 MiB
Duration                                 : 48 min 29 s
Overall bit rate                         : 570 kb/s
Encoded date                             : UTC 2017-10-20 02:40:56
Tagged date                              : UTC 2017-10-20 02:40:56

Video
ID                                       : 1
Format                                   : AVC
Format/Info                              : Advanced Video Codec
Format profile                           : Main@L3.1
Format settings                          : CABAC / 3 Ref Frames
Format settings, CABAC                   : Yes
Format settings, RefFrames               : 3 frames
Codec ID                                 : avc1
Codec ID/Info                            : Advanced Video Coding
Duration                                 : 48 min 29 s
Bit rate                                 : 567 kb/s
Width                                    : 854 pixels
Height                                   : 480 pixels
Display aspect ratio                     : 16:9
Frame rate mode                          : Constant
Frame rate                               : 29.970 (30000/1001) FPS
Color space                              : YUV
Chroma subsampling                       : 4:2:0
Bit depth                                : 8 bits
Scan type                                : Progressive
Bits/(Pixel*Frame)                       : 0.046
Stream size                              : 196 MiB (99%)
Encoded date                             : UTC 2017-10-20 02:40:56
Tagged date                              : UTC 2017-10-20 02:40:56
Color range                              : Limited
Color primaries                          : BT.601 NTSC
Transfer characteristics                 : BT.601
Matrix coefficients                      : BT.601









Code:
https://openload.co/f/0UgxVcf1hWk



Code:
https://bdupload.info/jcigpwhcty05



Code:
http://www.indishare.me/8286bxehhtuv



Code:
http://katfile.com/w88cflm253mb/Pakistan.Vs.Srilanka.2017.3rd.ODI.HD.Highlights.By.Rj.Rabasha.mp4.html













Info:
Code:
General
Complete name                            : Pakistan.Vs.Srilanka.2017.4th.ODI.HD.Highlights.By.Rj.Rabasha.mp4
Format                                   : dash
Codec ID                                 : dash (iso6/avc1/mp41)
File size                                : 146 MiB
Duration                                 : 32 min 43 s
Overall bit rate                         : 624 kb/s
Encoded date                             : UTC 2017-10-21 02:04:35
Tagged date                              : UTC 2017-10-21 02:04:35

Video
ID                                       : 1
Format                                   : AVC
Format/Info                              : Advanced Video Codec
Format profile                           : Main@L3.1
Format settings                          : CABAC / 3 Ref Frames
Format settings, CABAC                   : Yes
Format settings, RefFrames               : 3 frames
Codec ID                                 : avc1
Codec ID/Info                            : Advanced Video Coding
Duration                                 : 32 min 43 s
Bit rate                                 : 621 kb/s
Width                                    : 854 pixels
Height                                   : 480 pixels
Display aspect ratio                     : 16:9
Frame rate mode                          : Constant
Frame rate                               : 29.970 (30000/1001) FPS
Color space                              : YUV
Chroma subsampling                       : 4:2:0
Bit depth                                : 8 bits
Scan type                                : Progressive
Bits/(Pixel*Frame)                       : 0.051
Stream size                              : 145 MiB (100%)
Encoded date                             : UTC 2017-10-21 02:04:35
Tagged date                              : UTC 2017-10-21 02:04:35
Color range                              : Limited
Color primaries                          : BT.601 NTSC
Transfer characteristics                 : BT.601
Matrix coefficients                      : BT.601









Code:
https://openload.co/f/qair5Z6woUc



Code:
https://bdupload.info/q5bmyetix6h0



Code:
http://www.indishare.me/ijyi48df6uo1



Code:
http://katfile.com/2bjssj50xzz2/Pakistan.Vs.Srilanka.2017.4th.ODI.HD.Highlights.By.Rj.Rabasha.mp4.html













Info:
Code:
General
Complete name                            : Pakistan.Vs.Srilanka.2017.5th.ODI.HD.Highlights.By.Rj.Rabasha.mp4
Format                                   : dash
Codec ID                                 : dash (iso6/avc1/mp41)
File size                                : 123 MiB
Duration                                 : 29 min 44 s
Overall bit rate                         : 576 kb/s
Encoded date                             : UTC 2017-10-24 06:35:54
Tagged date                              : UTC 2017-10-24 06:35:54

Video
ID                                       : 1
Format                                   : AVC
Format/Info                              : Advanced Video Codec
Format profile                           : Main@L3.1
Format settings                          : CABAC / 3 Ref Frames
Format settings, CABAC                   : Yes
Format settings, RefFrames               : 3 frames
Codec ID                                 : avc1
Codec ID/Info                            : Advanced Video Coding
Duration                                 : 29 min 44 s
Bit rate                                 : 573 kb/s
Width                                    : 854 pixels
Height                                   : 480 pixels
Display aspect ratio                     : 16:9
Frame rate mode                          : Constant
Frame rate                               : 29.970 (30000/1001) FPS
Color space                              : YUV
Chroma subsampling                       : 4:2:0
Bit depth                                : 8 bits
Scan type                                : Progressive
Bits/(Pixel*Frame)                       : 0.047
Stream size                              : 122 MiB (99%)
Encoded date                             : UTC 2017-10-24 06:35:54
Tagged date                              : UTC 2017-10-24 06:35:54
Color range                              : Limited
Color primaries                          : BT.601 NTSC
Transfer characteristics                 : BT.601
Matrix coefficients                      : BT.601









Code:
https://openload.co/f/g8OMCp2CWcc



Code:
https://bdupload.info/pazl6ywrzad6



Code:
http://www.indishare.me/oluslyoo30dh



Code:
http://katfile.com/ee21tqk5b0yp/Pakistan.Vs.Srilanka.2017.5th.ODI.HD.Highlights.By.Rj.Rabasha.mp4.html













Info:
Code:
General
Complete name                            : Pakistan.Vs.Srilanka.2017.5th.ODI.Presentation.Ceremony.By.Rj.Rabasha.mp4
Format                                   : dash
Codec ID                                 : dash (iso6/avc1/mp41)
File size                                : 74.4 MiB
Duration                                 : 16 min 37 s
Overall bit rate                         : 626 kb/s
Encoded date                             : UTC 2017-10-24 03:40:16
Tagged date                              : UTC 2017-10-24 03:40:16

Video
ID                                       : 1
Format                                   : AVC
Format/Info                              : Advanced Video Codec
Format profile                           : Main@L3.1
Format settings                          : CABAC / 3 Ref Frames
Format settings, CABAC                   : Yes
Format settings, RefFrames               : 3 frames
Codec ID                                 : avc1
Codec ID/Info                            : Advanced Video Coding
Duration                                 : 16 min 37 s
Bit rate                                 : 623 kb/s
Width                                    : 854 pixels
Height                                   : 480 pixels
Display aspect ratio                     : 16:9
Frame rate mode                          : Constant
Frame rate                               : 29.970 (30000/1001) FPS
Color space                              : YUV
Chroma subsampling                       : 4:2:0
Bit depth                                : 8 bits
Scan type                                : Progressive
Bits/(Pixel*Frame)                       : 0.051
Stream size                              : 74.0 MiB (100%)
Encoded date                             : UTC 2017-10-24 03:40:16
Tagged date                              : UTC 2017-10-24 03:40:16
Color range                              : Limited
Color primaries                          : BT.601 NTSC
Transfer characteristics                 : BT.601
Matrix coefficients                      : BT.601









Code:
https://openload.co/f/MiTE5KKTnNM



Code:
https://bdupload.info/4d7sn4xxleq4



Code:
http://www.indishare.me/oluslyoo30dh



Code:
http://katfile.com/211lctggjq3f/Pakistan.Vs.Srilanka.2017.5th.ODI.Presentation.Ceremony.By.Rj.Rabasha.mp4.html









Last edited by Rabasha on Fri Oct 27, 2017 1:35 pm; edited 1 time in total (Reason for editing : links updated [27-Oct-2017]............)

Rabasha

Posts : 743
Join date : 2012-12-10

View user profile

Back to top Go down

View previous topic View next topic Back to top

- Similar topics

 
Permissions in this forum:
You cannot reply to topics in this forum