Come as a Guest Stay As a Family::
DeaR Friends
Come as a guest Stay As a Family Radio FM157 is a your music home just listen and enjoying.
Please Join Our Radio FM157 with Song Dedication to Ur Loves , PoeTry, GuPshaP.So Please Register Now

[HTTP] All The Best: Fun Begins (2009) DVDRip x264 AC3 [1.4GB] 1 Link

View previous topic View next topic Go down

[HTTP] All The Best: Fun Begins (2009) DVDRip x264 AC3 [1.4GB] 1 Link

Post  Rabasha on Mon Oct 23, 2017 10:44 am








IMDB:
Code:
http://www.imdb.com/title/tt1433905/

Code:
General
Complete name                            : All.The.Best.2009.DVDRip.x264.AC3.1.4GB.By.Rj.Rabasha.mp4
Format                                  : MPEG-4
Format profile                          : Base Media / Version 2
Codec ID                                : mp42 (isom/mp42)
File size                                : 1.39 GiB
Duration                                : 2 h 20 min
Overall bit rate mode                    : Variable
Overall bit rate                        : 1 418 kb/s
Encoded date                            : UTC 2017-10-07 05:01:15
Tagged date                              : UTC 2017-10-07 05:01:15
gsst                                    : 0
gstd                                    : 8442171

Video
ID                                      : 1
Format                                  : AVC
Format/Info                              : Advanced Video Codec
Format profile                          : Main@L3.1
Format settings                          : CABAC / 3 Ref Frames
Format settings, CABAC                  : Yes
Format settings, RefFrames              : 3 frames
Codec ID                                : avc1
Codec ID/Info                            : Advanced Video Coding
Duration                                : 2 h 20 min
Bit rate                                : 1 288 kb/s
Width                                    : 1 280 pixels
Height                                  : 544 pixels
Display aspect ratio                    : 2.35:1
Frame rate mode                          : Constant
Frame rate                              : 29.970 (30000/1001) FPS
Color space                              : YUV
Chroma subsampling                      : 4:2:0
Bit depth                                : 8 bits
Scan type                                : Progressive
Bits/(Pixel*Frame)                      : 0.062
Stream size                              : 1.27 GiB (91%)
Title                                    : ISO Media file produced by Google Inc. Created on: 10/06/2017.
Encoded date                            : UTC 2017-10-07 05:01:15
Tagged date                              : UTC 2017-10-07 05:01:15
Color range                              : Limited
Color primaries                          : BT.709
Transfer characteristics                : BT.709
Matrix coefficients                      : BT.709

Audio
ID                                      : 2
Format                                  : AAC
Format/Info                              : Advanced Audio Codec
Format profile                          : LC
Codec ID                                : mp4a-40-2
Duration                                : 2 h 20 min
Bit rate mode                            : Variable
Bit rate                                : 126 kb/s
Channel(s)                              : 2 channels
Channel positions                        : Front: L R
Sampling rate                            : 44.1 kHz
Frame rate                              : 43.066 FPS (1024 SPF)
Compression mode                        : Lossy
Stream size                              : 126 MiB (9%)
Title                                    : ISO Media file produced by Google Inc. Created on: 10/06/2017.
Encoded date                            : UTC 2017-10-07 05:01:15
Tagged date                              : UTC 2017-10-07 05:01:15

















2 Link
Code:
https://openload.co/f/szlRiaX7R9E
https://openload.co/f/wOTQ58kgFvo



1 Link
Code:
https://bdupload.info/09wxft5qcbat



1 Link
Code:
http://www.indishare.me/ziw03tb4nmzq



1 Link
Code:
http://katfile.com/msyj8udqvnh8/Backup0.All.The.Best.2009.DVDRip.x264.AC3.1.4GB.By.Rj.Rabasha.mp4.html








Rabasha

Posts : 743
Join date : 2012-12-10

View user profile

Back to top Go down

View previous topic View next topic Back to top

- Similar topics

 
Permissions in this forum:
You cannot reply to topics in this forum