Come as a Guest Stay As a Family::
DeaR Friends
Come as a guest Stay As a Family Radio FM157 is a your music home just listen and enjoying.
Please Join Our Radio FM157 with Song Dedication to Ur Loves , PoeTry, GuPshaP.So Please Register Now

[HTTP] Katamarayudu (2017) (Telugu) 1CD HDRip XviD [700MB] 1 Link

View previous topic View next topic Go down

[HTTP] Katamarayudu (2017) (Telugu) 1CD HDRip XviD [700MB] 1 Link

Post  Rabasha on Sun Oct 22, 2017 7:09 pm








IMDB:
Code:
http://www.imdb.com/title/tt6522398/

Code:
General
Complete name                            : Katamarayudu.2017.Telugu.1CD.HDRip.XviD.By.Rj.Rabasha.avi
Format                                  : AVI
Format/Info                              : Audio Video Interleave
File size                                : 700 MiB
Duration                                : 2 h 19 min
Overall bit rate mode                    : Variable
Overall bit rate                        : 703 kb/s

Video
ID                                      : 0
Format                                  : MPEG-4 Visual
Format profile                          : Advanced Simple@L5
Format settings                          : BVOP2
Format settings, BVOP                    : 2
Format settings, QPel                    : No
Format settings, GMC                    : No warppoints
Format settings, Matrix                  : Default (H.263)
Codec ID                                : XVID
Codec ID/Hint                            : XviD
Duration                                : 2 h 19 min
Bit rate                                : 593 kb/s
Width                                    : 704 pixels
Height                                  : 296 pixels
Display aspect ratio                    : 2.40:1
Frame rate                              : 25.000 FPS
Color space                              : YUV
Chroma subsampling                      : 4:2:0
Bit depth                                : 8 bits
Scan type                                : Progressive
Compression mode                        : Lossy
Bits/(Pixel*Frame)                      : 0.114
Stream size                              : 590 MiB (84%)
Writing library                          : XviD 67

Audio
ID                                      : 1
Format                                  : MPEG Audio
Format version                          : Version 1
Format profile                          : Layer 3
Format settings                          : Joint stereo / MS Stereo
Mode                                    : Joint stereo
Mode extension                          : MS Stereo
Codec ID                                : 55
Codec ID/Hint                            : MP3
Duration                                : 2 h 19 min
Bit rate mode                            : Variable
Bit rate                                : 96.0 kb/s
Channel(s)                              : 2 channels
Sampling rate                            : 48.0 kHz
Compression mode                        : Lossy
Stream size                              : 96.6 MiB (14%)
Alignment                                : Aligned on interleaves
Interleave, duration                    : 24  ms (0.60 video frame)
Interleave, preload duration            : 87  ms
Writing library                          : LAME3.99r
Encoding settings                        : -m j -V 4 -q 3 -lowpass 15.1 --abr 96

















Code:
https://openload.co/f/KOhXTVP0vms



Code:
https://bdupload.info/e6y3uf66xhby



Code:
http://www.indishare.me/reh6808s9gci



Code:
http://katfile.com/h6emfqimpisn/Backup0.Katamarayudu.2017.Telugu.1CD.HDRip.XviD.By.Rj.Rabasha.avi.html








Rabasha

Posts : 743
Join date : 2012-12-10

View user profile

Back to top Go down

View previous topic View next topic Back to top

- Similar topics

 
Permissions in this forum:
You cannot reply to topics in this forum