Come as a Guest Stay As a Family::
DeaR Friends
Come as a guest Stay As a Family Radio FM157 is a your music home just listen and enjoying.
Please Join Our Radio FM157 with Song Dedication to Ur Loves , PoeTry, GuPshaP.So Please Register Now

[HTTP] American Made (2017) 720p HC HDRip x264 [900MB] 1 Link

View previous topic View next topic Go down

[HTTP] American Made (2017) 720p HC HDRip x264 [900MB] 1 Link

Post  Rabasha on Sat Oct 21, 2017 3:21 pm








IMDB:
Code:
http://www.imdb.com/title/tt3532216/

Code:
General
Unique ID                                : 210377262254897882304728786477101095704 (0x9E452FD8A52360E39ABD282727B81B18)
Complete name                            : American.Made.2017.720p.HC.HDRip.x264.By.Rj.Rabasha.mkv
Format                                   : Matroska
Format version                           : Version 4 / Version 2
File size                                : 902 MiB
Duration                                 : 1 h 53 min
Overall bit rate                         : 1 110 kb/s
Movie name                               : American.Made.2017.720p.HC.HDRip.x264
Encoded date                             : UTC 2017-10-13 01:29:09
Writing application                      : mkvmerge v13.0.0 ('The Juggler') 32bit
Writing library                          : libebml v1.3.4 + libmatroska v1.4.5

Video
ID                                       : 2
Format                                   : AVC
Format/Info                              : Advanced Video Codec
Format profile                           : High@L4.1
Format settings                          : CABAC / 5 Ref Frames
Format settings, CABAC                   : Yes
Format settings, RefFrames               : 5 frames
Codec ID                                 : V_MPEG4/ISO/AVC
Duration                                 : 1 h 53 min
Bit rate                                 : 1 045 kb/s
Width                                    : 1 280 pixels
Height                                   : 688 pixels
Display aspect ratio                     : 1.85:1
Frame rate mode                          : Constant
Frame rate                               : 30.000 FPS
Color space                              : YUV
Chroma subsampling                       : 4:2:0
Bit depth                                : 8 bits
Scan type                                : Progressive
Bits/(Pixel*Frame)                       : 0.040
Stream size                              : 849 MiB (94%)
Writing library                          : x264 core 148 r2708 86b7198
Encoding settings                        : cabac=1 / ref=5 / deblock=1:0:0 / analyse=0x3:0x113 / me=umh / subme=8 / psy=1 / psy_rd=1.00:0.00 / mixed_ref=1 / me_range=16 / chroma_me=1 / trellis=1 / 8x8dct=1 / cqm=0 / deadzone=21,11 / fast_pskip=1 / chroma_qp_offset=-2 / threads=21 / lookahead_threads=3 / sliced_threads=0 / nr=0 / decimate=1 / interlaced=0 / bluray_compat=0 / constrained_intra=0 / bframes=3 / b_pyramid=2 / b_adapt=2 / b_bias=0 / direct=3 / weightb=1 / open_gop=0 / weightp=2 / keyint=300 / keyint_min=30 / scenecut=40 / intra_refresh=0 / rc_lookahead=50 / rc=2pass / mbtree=1 / bitrate=1045 / ratetol=1.0 / qcomp=0.60 / qpmin=0 / qpmax=69 / qpstep=4 / cplxblur=20.0 / qblur=0.5 / vbv_maxrate=62500 / vbv_bufsize=78125 / nal_hrd=none / filler=0 / ip_ratio=1.40 / aq=1:1.00
Default                                  : Yes
Forced                                   : No
Color range                              : Limited
Color primaries                          : BT.709
Transfer characteristics                 : BT.709
Matrix coefficients                      : BT.709

Audio
ID                                       : 1
Format                                   : AAC
Format/Info                              : Advanced Audio Codec
Format profile                           : HE-AAC / LC
Format settings                          : Explicit
Codec ID                                 : A_AAC-2
Duration                                 : 1 h 53 min
Bit rate                                 : 64.0 kb/s
Channel(s)                               : 2 channels
Channel positions                        : Front: L R
Sampling rate                            : 48.0 kHz / 24.0 kHz
Frame rate                               : 23.438 FPS (1024 SPF)
Compression mode                         : Lossy
Delay relative to video                  : 31 ms
Stream size                              : 52.0 MiB (6%)
Language                                 : English
Default                                  : Yes
Forced                                   : No

















Code:
https://openload.co/f/gcidEN5BT1w



Code:
https://bdupload.info/sfyq58k2k5dv



Code:
http://www.indishare.me/kle1ydun46hl



Code:
http://katfile.com/jljrgczrxbhr/Backup2.American.Made.2017.720p.HC.HDRip.x264.By.Rj.Rabasha.mkv.html









Last edited by Rabasha on Sat Oct 28, 2017 12:30 pm; edited 3 times in total (Reason for editing : links updated [28-Oct-2017]............)

Rabasha

Posts : 743
Join date : 2012-12-10

View user profile

Back to top Go down

Re: [HTTP] American Made (2017) 720p HC HDRip x264 [900MB] 1 Link

Post  Rabasha on Thu Oct 26, 2017 6:51 am

Backup1 Updated

Rabasha

Posts : 743
Join date : 2012-12-10

View user profile

Back to top Go down

View previous topic View next topic Back to top

- Similar topics

 
Permissions in this forum:
You cannot reply to topics in this forum