Come as a Guest Stay As a Family::
DeaR Friends
Come as a guest Stay As a Family Radio FM157 is a your music home just listen and enjoying.
Please Join Our Radio FM157 with Song Dedication to Ur Loves , PoeTry, GuPshaP.So Please Register Now

[HTTP] Golmaal Again (2017) 1CD DVDScr x264 [Audio Cleaned] [700MB] 1 Link

View previous topic View next topic Go down

[HTTP] Golmaal Again (2017) 1CD DVDScr x264 [Audio Cleaned] [700MB] 1 Link

Post  Rabasha on Sat Oct 21, 2017 9:13 am








IMDB:
Code:
http://www.imdb.com/title/tt1806913/

Code:
General
Unique ID                                : 189987896999937374956812688328106908484 (0x8EEE568688D5BA09AB3507607E1B1B44)
Complete name                            : Golmaal.Again.2017.1CD.DVDScr.x264.By.Rj.Rabasha.mkv
Format                                   : Matroska
Format version                           : Version 4 / Version 2
File size                                : 698 MiB
Duration                                 : 2 h 31 min
Overall bit rate                         : 645 kb/s
Encoded date                             : UTC 2017-10-20 15:19:58
Writing application                      : mkvmerge v7.0.0 ('Where We Going') 32bit built on Jun  9 2014 15:08:34
Writing library                          : libebml v1.3.0 + libmatroska v1.4.1

Video
ID                                       : 1
Format                                   : AVC
Format/Info                              : Advanced Video Codec
Format profile                           : High@L3.1
Format settings                          : CABAC / 8 Ref Frames
Format settings, CABAC                   : Yes
Format settings, RefFrames               : 8 frames
Codec ID                                 : V_MPEG4/ISO/AVC
Duration                                 : 2 h 31 min
Bit rate                                 : 579 kb/s
Width                                    : 640 pixels
Height                                   : 272 pixels
Display aspect ratio                     : 2.35:1
Frame rate mode                          : Constant
Frame rate                               : 25.000 FPS
Color space                              : YUV
Chroma subsampling                       : 4:2:0
Bit depth                                : 8 bits
Scan type                                : Progressive
Bits/(Pixel*Frame)                       : 0.133
Stream size                              : 626 MiB (90%)
Writing library                          : x264 core 152 r2851 ba24899
Encoding settings                        : cabac=1 / ref=8 / deblock=1:0:0 / analyse=0x3:0x133 / me=umh / subme=9 / psy=1 / psy_rd=1.00:0.00 / mixed_ref=1 / me_range=16 / chroma_me=1 / trellis=2 / 8x8dct=1 / cqm=0 / deadzone=21,11 / fast_pskip=0 / chroma_qp_offset=-2 / threads=12 / lookahead_threads=1 / sliced_threads=0 / nr=400 / decimate=1 / interlaced=0 / bluray_compat=0 / constrained_intra=0 / bframes=3 / b_pyramid=2 / b_adapt=2 / b_bias=0 / direct=3 / weightb=1 / open_gop=0 / weightp=2 / keyint=250 / keyint_min=25 / scenecut=40 / intra_refresh=0 / rc_lookahead=60 / rc=2pass / mbtree=1 / bitrate=579 / ratetol=1.0 / qcomp=0.60 / qpmin=0 / qpmax=69 / qpstep=4 / cplxblur=20.0 / qblur=0.5 / ip_ratio=1.40 / aq=1:1.00
Language                                 : Hindi
Default                                  : Yes
Forced                                   : No

Audio
ID                                       : 2
Format                                   : AAC
Format/Info                              : Advanced Audio Codec
Format profile                           : LC
Codec ID                                 : A_AAC-2
Duration                                 : 2 h 31 min
Bit rate                                 : 64.0 kb/s
Channel(s)                               : 2 channels
Channel positions                        : Front: L R
Sampling rate                            : 44.1 kHz
Frame rate                               : 43.066 FPS (1024 SPF)
Compression mode                         : Lossy
Delay relative to video                  : 10 ms
Stream size                              : 69.2 MiB (10%)
Language                                 : Hindi
Default                                  : Yes
Forced                                   : No























Code:
https://openload.co/f/6LBf4qd5zt0



Code:
https://bdupload.info/sdmkzmn3enar



Code:
http://www.indishare.me/ud96lezokjzl



Code:
http://katfile.com/6ozk3qg56nx1/Backup3.Golmaal.Again.2017.1CD.DVDScr.x264.By.Rj.Rabasha.mkv.html









Last edited by Rabasha on Sat Oct 28, 2017 9:41 am; edited 4 times in total (Reason for editing : links updated [28-Oct-2017]............)

Rabasha

Posts : 743
Join date : 2012-12-10

View user profile

Back to top Go down

Re: [HTTP] Golmaal Again (2017) 1CD DVDScr x264 [Audio Cleaned] [700MB] 1 Link

Post  Rabasha on Sun Oct 22, 2017 3:10 pm

Backup1 Updated

Rabasha

Posts : 743
Join date : 2012-12-10

View user profile

Back to top Go down

View previous topic View next topic Back to top

- Similar topics

 
Permissions in this forum:
You cannot reply to topics in this forum