Come as a Guest Stay As a Family::
DeaR Friends
Come as a guest Stay As a Family Radio FM157 is a your music home just listen and enjoying.
Please Join Our Radio FM157 with Song Dedication to Ur Loves , PoeTry, GuPshaP.So Please Register Now

[HTTP] Wheelman (2017) 720p HDRip x264 ESubs [650MB] 1 Link

View previous topic View next topic Go down

[HTTP] Wheelman (2017) 720p HDRip x264 ESubs [650MB] 1 Link

Post  Rabasha on Fri Oct 20, 2017 3:55 pm








IMDB:
Code:
http://www.imdb.com/title/tt5723286/

Code:
General
Unique ID                                : 194362545999209231028135827780244958099 (0x9238DD5FA5DFE8FE8993D97BBA716B93)
Complete name                            : Wheelman.2017.720p.HDRip. x264.ESubs.By.Rj.Rabasha.mkv
Format                                  : Matroska
Format version                          : Version 4 / Version 2
File size                                : 651 MiB
Duration                                : 1 h 22 min
Overall bit rate                        : 1 104 kb/s
Encoded date                            : UTC 2017-10-20 14:33:39
Writing application                      : mkvmerge v7.0.0 ('Where We Going') 32bit built on Jun  9 2014 15:08:34
Writing library                          : libebml v1.3.0 + libmatroska v1.4.1

Video
ID                                      : 1
Format                                  : AVC
Format/Info                              : Advanced Video Codec
Format profile                          : High@L4.1
Format settings                          : CABAC / 5 Ref Frames
Format settings, CABAC                  : Yes
Format settings, RefFrames              : 5 frames
Codec ID                                : V_MPEG4/ISO/AVC
Duration                                : 1 h 22 min
Bit rate                                : 1 039 kb/s
Width                                    : 1 280 pixels
Height                                  : 536 pixels
Display aspect ratio                    : 2.40:1
Frame rate mode                          : Constant
Frame rate                              : 23.976 (24000/1001) FPS
Color space                              : YUV
Chroma subsampling                      : 4:2:0
Bit depth                                : 8 bits
Scan type                                : Progressive
Bits/(Pixel*Frame)                      : 0.063
Stream size                              : 612 MiB (94%)
Writing library                          : x264 core 133 r2334 a3ac64b
Encoding settings                        : cabac=1 / ref=5 / deblock=1:-1:-1 / analyse=0x3:0x113 / me=umh / subme=8 / psy=1 / psy_rd=1.00:0.00 / mixed_ref=1 / me_range=16 / chroma_me=1 / trellis=1 / 8x8dct=1 / cqm=0 / deadzone=21,11 / fast_pskip=1 / chroma_qp_offset=-2 / threads=48 / lookahead_threads=4 / sliced_threads=0 / nr=0 / decimate=1 / interlaced=0 / bluray_compat=0 / constrained_intra=0 / bframes=3 / b_pyramid=2 / b_adapt=2 / b_bias=0 / direct=3 / weightb=1 / open_gop=0 / weightp=2 / keyint=240 / keyint_min=23 / scenecut=40 / intra_refresh=0 / rc_lookahead=50 / rc=2pass / mbtree=1 / bitrate=1039 / ratetol=1.0 / qcomp=0.60 / qpmin=10 / qpmax=51 / qpstep=4 / cplxblur=20.0 / qblur=0.5 / vbv_maxrate=62500 / vbv_bufsize=78125 / nal_hrd=none / ip_ratio=1.40 / aq=1:1.00
Language                                : English
Default                                  : Yes
Forced                                  : No

Audio
ID                                      : 2
Format                                  : AAC
Format/Info                              : Advanced Audio Codec
Format profile                          : HE-AAC / LC
Format settings                          : Explicit
Codec ID                                : A_AAC-2
Duration                                : 1 h 22 min
Bit rate                                : 63.8 kb/s
Channel(s)                              : 2 channels
Channel positions                        : Front: L R
Sampling rate                            : 48.0 kHz / 24.0 kHz
Frame rate                              : 23.438 FPS (1024 SPF)
Compression mode                        : Lossy
Delay relative to video                  : 31 ms
Stream size                              : 37.6 MiB (6%)
Language                                : English
Default                                  : Yes
Forced                                  : No

Text
ID                                      : 3
Format                                  : UTF-8
Codec ID                                : S_TEXT/UTF8
Codec ID/Info                            : UTF-8 Plain Text
Duration                                : 1 h 16 min
Bit rate                                : 71 b/s
Count of elements                        : 1095
Stream size                              : 39.9 KiB (0%)
Language                                : English
Default                                  : Yes
Forced                                  : No

















Code:
https://openload.co/f/E-bZlsNWRbc



Code:
https://bdupload.info/8rnctmsuvdu0



Code:
http://www.indishare.me/7bmw8sh2x6fh



Code:
http://katfile.com/fltbhcvrq1zf/Backup0.Wheelman.2017.720p.HDRip._x264.ESubs.By.Rj.Rabasha.zip.html








Rabasha

Posts : 743
Join date : 2012-12-10

View user profile

Back to top Go down

View previous topic View next topic Back to top

- Similar topics

 
Permissions in this forum:
You cannot reply to topics in this forum