Come as a Guest Stay As a Family::
DeaR Friends
Come as a guest Stay As a Family Radio FM157 is a your music home just listen and enjoying.
Please Join Our Radio FM157 with Song Dedication to Ur Loves , PoeTry, GuPshaP.So Please Register Now

[HTTP] Mersal (2017) (Tamil) 1CD DVDScr x264 Orignal Audio [630MB] 1 Link

View previous topic View next topic Go down

[HTTP] Mersal (2017) (Tamil) 1CD DVDScr x264 Orignal Audio [630MB] 1 Link

Post  Rabasha on Thu Oct 19, 2017 4:37 pm








IMDB:
Code:
http://www.imdb.com/title/tt6485666/

Code:
General
Complete name                            : Mersal.2017.Tamil.1CD.DVDScr.x264.Orignal.Audio.By.Rj.Rabasha.mp4
Format                                   : MPEG-4
Format profile                           : Base Media
Codec ID                                 : isom (isom/iso2/avc1/mp41)
File size                                : 631 MiB
Duration                                 : 2 h 45 min
Overall bit rate                         : 532 kb/s
Writing application                      : Lavf57.71.100

Video
ID                                       : 1
Format                                   : AVC
Format/Info                              : Advanced Video Codec
Format profile                           : High@L2.1
Format settings                          : CABAC / 4 Ref Frames
Format settings, CABAC                   : Yes
Format settings, RefFrames               : 4 frames
Codec ID                                 : avc1
Codec ID/Info                            : Advanced Video Coding
Duration                                 : 2 h 45 min
Bit rate                                 : 467 kb/s
Nominal bit rate                         : 510 kb/s
Width                                    : 608 pixels
Height                                   : 256 pixels
Display aspect ratio                     : 2.40:1
Frame rate mode                          : Variable
Frame rate                               : 23.159 FPS
Minimum frame rate                       : 0.030 FPS
Maximum frame rate                       : 25.000 FPS
Original frame rate                      : 25.000 FPS
Color space                              : YUV
Chroma subsampling                       : 4:2:0
Bit depth                                : 8 bits
Scan type                                : Progressive
Bits/(Pixel*Frame)                       : 0.130
Stream size                              : 554 MiB (88%)
Writing library                          : x264 core 148 r2744 b97ae06
Encoding settings                        : cabac=1 / ref=3 / deblock=1:0:0 / analyse=0x3:0x113 / me=hex / subme=7 / psy=1 / psy_rd=1.00:0.00 / mixed_ref=1 / me_range=16 / chroma_me=1 / trellis=1 / 8x8dct=1 / cqm=0 / deadzone=21,11 / fast_pskip=1 / chroma_qp_offset=-2 / threads=8 / lookahead_threads=1 / sliced_threads=0 / nr=0 / decimate=1 / interlaced=0 / bluray_compat=0 / constrained_intra=0 / bframes=3 / b_pyramid=2 / b_adapt=1 / b_bias=0 / direct=1 / weightb=1 / open_gop=0 / weightp=2 / keyint=250 / keyint_min=25 / scenecut=40 / intra_refresh=0 / rc_lookahead=40 / rc=2pass / mbtree=1 / bitrate=510 / ratetol=1.0 / qcomp=0.60 / qpmin=0 / qpmax=69 / qpstep=4 / cplxblur=20.0 / qblur=0.5 / ip_ratio=1.40 / aq=1:1.00
Language                                 : Tamil

Audio
ID                                       : 2
Format                                   : AAC
Format/Info                              : Advanced Audio Codec
Format profile                           : LC
Codec ID                                 : mp4a-40-2
Duration                                 : 2 h 45 min
Bit rate mode                            : Constant
Bit rate                                 : 59.9 kb/s
Channel(s)                               : 2 channels
Channel positions                        : Front: L R
Sampling rate                            : 22.05 kHz
Frame rate                               : 21.533 FPS (1024 SPF)
Compression mode                         : Lossy
Stream size                              : 71.1 MiB (11%)
Language                                 : Tamil
Default                                  : Yes
Alternate group                          : 1

















Code:
https://openload.co/f/V4FFFN3SkvM



Code:
https://bdupload.info/4tfu0dnksznd



Code:
http://www.indishare.me/f2htqhm0vyz0



Code:
http://katfile.com/2gj09keb504d/Backup0.Mersal.2017.Tamil.1CD.DVDScr.x264.Orignal.Audio.By.Rj.Rabasha.mp4.html








Rabasha

Posts : 743
Join date : 2012-12-10

View user profile

Back to top Go down

View previous topic View next topic Back to top

- Similar topics

 
Permissions in this forum:
You cannot reply to topics in this forum