Come as a Guest Stay As a Family::
DeaR Friends
Come as a guest Stay As a Family Radio FM157 is a your music home just listen and enjoying.
Please Join Our Radio FM157 with Song Dedication to Ur Loves , PoeTry, GuPshaP.So Please Register Now

[HTTP] Raja The Great (2017) (Telugu) 1CD DVDScr x264 LiNE Audio [670MB] 1 Link

View previous topic View next topic Go down

[HTTP] Raja The Great (2017) (Telugu) 1CD DVDScr x264 LiNE Audio [670MB] 1 Link

Post  Rabasha on Thu Oct 19, 2017 11:51 am








IMDB:
Code:
http://www.imdb.com/title/tt7322850/

Code:
General
Complete name                            : Raja.The.Great.2017.Telugu.1CD.DVDScr.x264.LiNE.Audio.By.Rj.Rabasha.mp4
Format                                   : MPEG-4
Format profile                           : Base Media
Codec ID                                 : isom (isom/iso2/avc1/mp41)
File size                                : 670 MiB
Duration                                 : 2 h 21 min
Overall bit rate                         : 661 kb/s
Writing application                      : Lavf57.71.100

Video
ID                                       : 1
Format                                   : AVC
Format/Info                              : Advanced Video Codec
Format profile                           : High@L2.2
Format settings                          : CABAC / 4 Ref Frames
Format settings, CABAC                   : Yes
Format settings, RefFrames               : 4 frames
Codec ID                                 : avc1
Codec ID/Info                            : Advanced Video Coding
Duration                                 : 2 h 21 min
Bit rate                                 : 592 kb/s
Width                                    : 720 pixels
Height                                   : 320 pixels
Display aspect ratio                     : 2.25:1
Frame rate mode                          : Variable
Frame rate                               : 15.000 FPS
Minimum frame rate                       : 14.925 FPS
Maximum frame rate                       : 15.152 FPS
Color space                              : YUV
Chroma subsampling                       : 4:2:0
Bit depth                                : 8 bits
Scan type                                : Progressive
Bits/(Pixel*Frame)                       : 0.171
Stream size                              : 600 MiB (89%)
Writing library                          : x264 core 148 r2744 b97ae06
Encoding settings                        : cabac=1 / ref=3 / deblock=1:0:0 / analyse=0x3:0x113 / me=hex / subme=7 / psy=1 / psy_rd=1.00:0.00 / mixed_ref=1 / me_range=16 / chroma_me=1 / trellis=1 / 8x8dct=1 / cqm=0 / deadzone=21,11 / fast_pskip=1 / chroma_qp_offset=-2 / threads=10 / lookahead_threads=1 / sliced_threads=0 / nr=0 / decimate=1 / interlaced=0 / bluray_compat=0 / constrained_intra=0 / bframes=3 / b_pyramid=2 / b_adapt=1 / b_bias=0 / direct=1 / weightb=1 / open_gop=0 / weightp=2 / keyint=150 / keyint_min=15 / scenecut=40 / intra_refresh=0 / rc_lookahead=40 / rc=2pass / mbtree=1 / bitrate=592 / ratetol=1.0 / qcomp=0.60 / qpmin=0 / qpmax=69 / qpstep=4 / cplxblur=20.0 / qblur=0.5 / ip_ratio=1.40 / aq=1:1.00
Language                                 : Telugu

Audio
ID                                       : 2
Format                                   : AAC
Format/Info                              : Advanced Audio Codec
Format profile                           : LC
Codec ID                                 : mp4a-40-2
Duration                                 : 2 h 21 min
Duration_LastFrame                       : -11 ms
Bit rate mode                            : Constant
Bit rate                                 : 64.6 kb/s
Channel(s)                               : 2 channels
Channel positions                        : Front: L R
Sampling rate                            : 48.0 kHz
Frame rate                               : 46.875 FPS (1024 SPF)
Compression mode                         : Lossy
Stream size                              : 65.4 MiB (10%)
Language                                 : Telugu
Default                                  : Yes
Alternate group                          : 1

















Code:
https://openload.co/f/9Nt5A-sxCeQ



Code:
https://bdupload.info/1y0g8r3pl7xc



Code:
http://www.indishare.me/hqtg0o7inamk



Code:
http://katfile.com/kedt3tq1fdat/Backup0.Raja.The.Great.2017.Telugu.1CD.DVDScr.x264.LiNE.Audio.By.Rj.Rabasha.mp4.html



Code:
https://subyshare.com/so0jdvzqwiaj/Backup0.Raja.The.Great.2017.Telugu.1CD.DVDScr.x264.LiNE.Audio.By.Rj.Rabasha.mp4.html








Rabasha

Posts : 743
Join date : 2012-12-10

View user profile

Back to top Go down

View previous topic View next topic Back to top

- Similar topics

 
Permissions in this forum:
You cannot reply to topics in this forum