Come as a Guest Stay As a Family::
DeaR Friends
Come as a guest Stay As a Family Radio FM157 is a your music home just listen and enjoying.
Please Join Our Radio FM157 with Song Dedication to Ur Loves , PoeTry, GuPshaP.So Please Register Now

[HTTP] Annabelle Creation (2017) (Horror) 720p BRRip x264 ESubs [800MB] 1 Link

View previous topic View next topic Go down

[HTTP] Annabelle Creation (2017) (Horror) 720p BRRip x264 ESubs [800MB] 1 Link

Post  Rabasha on Thu Oct 12, 2017 12:30 pm








IMDB:
Code:
http://www.imdb.com/title/tt5140878/

Code:
General
Unique ID                                : 170825772100149630426174448748721720742 (0x8083D8D36C8DAD17857048793239CDA6)
Complete name                            : Annabelle.Creation.2017.720p.BRRip.x264.ESubs.By.Rj.Rabasha.mkv
Format                                  : Matroska
Format version                          : Version 4 / Version 2
File size                                : 799 MiB
Duration                                : 1 h 49 min
Overall bit rate                        : 1 018 kb/s
Encoded date                            : UTC 2017-10-12 08:16:22
Writing application                      : mkvmerge v7.0.0 ('Where We Going') 32bit built on Jun  9 2014 15:08:34
Writing library                          : libebml v1.3.0 + libmatroska v1.4.1

Video
ID                                      : 1
Format                                  : AVC
Format/Info                              : Advanced Video Codec
Format profile                          : High@L4.1
Format settings                          : CABAC / 4 Ref Frames
Format settings, CABAC                  : Yes
Format settings, RefFrames              : 4 frames
Codec ID                                : V_MPEG4/ISO/AVC
Duration                                : 1 h 49 min
Bit rate                                : 900 kb/s
Width                                    : 1 280 pixels
Height                                  : 534 pixels
Display aspect ratio                    : 2.40:1
Original display aspect ratio            : 2.40:1
Frame rate mode                          : Constant
Frame rate                              : 23.976 (24000/1001) FPS
Color space                              : YUV
Chroma subsampling                      : 4:2:0
Bit depth                                : 8 bits
Scan type                                : Progressive
Bits/(Pixel*Frame)                      : 0.055
Stream size                              : 706 MiB (88%)
Writing library                          : x264 core 148
Encoding settings                        : cabac=1 / ref=4 / deblock=1:-1:-1 / analyse=0x3:0x133 / me=umh / subme=9 / psy=1 / psy_rd=1.00:0.15 / mixed_ref=1 / me_range=24 / chroma_me=1 / trellis=2 / 8x8dct=1 / cqm=0 / deadzone=21,11 / fast_pskip=0 / chroma_qp_offset=-3 / threads=12 / lookahead_threads=1 / sliced_threads=0 / nr=0 / decimate=1 / interlaced=0 / bluray_compat=0 / constrained_intra=0 / bframes=3 / b_pyramid=2 / b_adapt=2 / b_bias=0 / direct=3 / weightb=1 / open_gop=0 / weightp=2 / keyint=250 / keyint_min=23 / scenecut=40 / intra_refresh=0 / rc_lookahead=60 / rc=2pass / mbtree=1 / bitrate=900 / ratetol=1.0 / qcomp=0.60 / qpmin=0 / qpmax=69 / qpstep=4 / cplxblur=20.0 / qblur=0.5 / vbv_maxrate=31250 / vbv_bufsize=31250 / nal_hrd=none / filler=0 / ip_ratio=1.40 / aq=1:1.00
Language                                : English
Default                                  : Yes
Forced                                  : No

Audio
ID                                      : 2
Format                                  : AAC
Format/Info                              : Advanced Audio Codec
Format profile                          : LC
Codec ID                                : A_AAC-2
Duration                                : 1 h 49 min
Bit rate                                : 116 kb/s
Channel(s)                              : 2 channels
Channel positions                        : Front: L R
Sampling rate                            : 48.0 kHz
Frame rate                              : 46.875 FPS (1024 SPF)
Compression mode                        : Lossy
Delay relative to video                  : -43 ms
Stream size                              : 91.4 MiB (11%)
Language                                : English
Default                                  : Yes
Forced                                  : No

Text
ID                                      : 3
Format                                  : UTF-8
Codec ID                                : S_TEXT/UTF8
Codec ID/Info                            : UTF-8 Plain Text
Duration                                : 1 h 47 min
Bit rate                                : 31 b/s
Count of elements                        : 1023
Stream size                              : 24.9 KiB (0%)
Language                                : English
Default                                  : Yes
Forced                                  : No
























Code:
https://openload.co/f/b1K3ZDjYk5I



Code:
https://bdupload.info/pokuyqbqk2i0



Code:
http://www.indishare.me/hb686y6ca5t7



Code:
http://katfile.com/xql00e1egd4t/Backup0.Annabelle.Creation.2017.720p.BRRip.x264.ESubs.By.Rj.Rabasha.zip.html



Code:
https://subyshare.com/2q0h552cytk3/Backup0.Annabelle.Creation.2017.720p.BRRip.x264.ESubs.By.Rj.Rabasha.zip.html








Rabasha

Posts : 718
Join date : 2012-12-10

View user profile

Back to top Go down

View previous topic View next topic Back to top

- Similar topics

 
Permissions in this forum:
You cannot reply to topics in this forum