Come as a Guest Stay As a Family::
DeaR Friends
Come as a guest Stay As a Family Radio FM157 is a your music home just listen and enjoying.
Please Join Our Radio FM157 with Song Dedication to Ur Loves , PoeTry, GuPshaP.So Please Register Now

[HTTP] Daddy (2017) 1CD HDRip x264 ESubs [700MB] 1 Link

View previous topic View next topic Go down

[HTTP] Daddy (2017) 1CD HDRip x264 ESubs [700MB] 1 Link

Post  Rabasha on Thu Oct 12, 2017 6:57 am








IMDB:
Code:
http://www.imdb.com/title/tt6926486/

Code:
General
Complete name                            : Daddy.2017.1CD.HDRip.x264.mp4
Format                                  : MPEG-4
Format profile                          : Base Media
Codec ID                                : isom (isom/iso2/avc1/mp41)
File size                                : 712 MiB
Duration                                : 2 h 13 min
Overall bit rate                        : 744 kb/s
Writing application                      : Lavf57.71.100

Video
ID                                      : 1
Format                                  : AVC
Format/Info                              : Advanced Video Codec
Format profile                          : Main@L3
Format settings                          : CABAC / 4 Ref Frames
Format settings, CABAC                  : Yes
Format settings, RefFrames              : 4 frames
Codec ID                                : avc1
Codec ID/Info                            : Advanced Video Coding
Duration                                : 2 h 13 min
Bit rate                                : 599 kb/s
Width                                    : 720 pixels
Height                                  : 320 pixels
Display aspect ratio                    : 2.25:1
Frame rate mode                          : Variable
Frame rate                              : 29.970 (30000/1001) FPS
Minimum frame rate                      : 29.412 FPS
Maximum frame rate                      : 30.303 FPS
Color space                              : YUV
Chroma subsampling                      : 4:2:0
Bit depth                                : 8 bits
Scan type                                : Progressive
Bits/(Pixel*Frame)                      : 0.087
Stream size                              : 579 MiB (81%)
Writing library                          : x264 core 112
Encoding settings                        : cabac=1 / ref=2 / deblock=1:0:0 / analyse=0x1:0x111 / me=hex / subme=6 / psy=1 / psy_rd=1.00:0.00 / mixed_ref=0 / me_range=16 / chroma_me=1 / trellis=0 / 8x8dct=0 / cqm=0 / deadzone=21,11 / fast_pskip=1 / chroma_qp_offset=-2 / threads=12 / sliced_threads=0 / nr=0 / decimate=1 / interlaced=0 / constrained_intra=0 / bframes=2 / b_pyramid=2 / b_adapt=1 / b_bias=0 / direct=1 / weightb=0 / open_gop=0 / weightp=2 / keyint=300 / keyint_min=29 / scenecut=40 / intra_refresh=0 / rc_lookahead=40 / rc=abr / mbtree=1 / bitrate=599 / ratetol=1.0 / qcomp=0.60 / qpmin=3 / qpmax=51 / qpstep=4 / ip_ratio=1.40 / aq=1:1.00
Language                                : Hindi
Color range                              : Limited
Color primaries                          : BT.709
Transfer characteristics                : BT.709
Matrix coefficients                      : BT.709

Audio
ID                                      : 2
Format                                  : AAC
Format/Info                              : Advanced Audio Codec
Format profile                          : LC
Codec ID                                : mp4a-40-2
Duration                                : 2 h 13 min
Bit rate mode                            : Constant
Bit rate                                : 128 kb/s
Channel(s)                              : 2 channels
Channel positions                        : Front: L R
Sampling rate                            : 44.1 kHz
Frame rate                              : 43.066 FPS (1024 SPF)
Compression mode                        : Lossy
Stream size                              : 122 MiB (17%)
Language                                : Hindi
Default                                  : Yes
Alternate group                          : 1
























Code:
https://openload.co/f/wJm178Af_jY



Code:
https://bdupload.info/580219o4vxpd



Code:
http://www.indishare.me/natyw6ztc7qb



Code:
http://katfile.com/id017peueo63/Backup0.Daddy.2017.1CD.HDRip.x264.zip.html



Code:
https://subyshare.com/irte7zpwzmxg/Backup0.Daddy.2017.1CD.HDRip.x264.zip.html








Rabasha

Posts : 718
Join date : 2012-12-10

View user profile

Back to top Go down

View previous topic View next topic Back to top

- Similar topics

 
Permissions in this forum:
You cannot reply to topics in this forum