Come as a Guest Stay As a Family::
DeaR Friends
Come as a guest Stay As a Family Radio FM157 is a your music home just listen and enjoying.
Please Join Our Radio FM157 with Song Dedication to Ur Loves , PoeTry, GuPshaP.So Please Register Now

[HTTP] A Gentleman (2017) (Hindi) 1CD HDRip x264 [845MB] 1 Link

View previous topic View next topic Go down

[HTTP] A Gentleman (2017) (Hindi) 1CD HDRip x264 [845MB] 1 Link

Post  Rabasha on Mon Oct 09, 2017 12:55 pm








IMDB:
Code:
http://www.imdb.com/title/tt5613834/

Release Info:
Code:
General
Complete name                            : A.Gentleman.2017.1CD.HDRip.x264.By.Rj.Rabasha.mp4
Format                                  : MPEG-4
Format profile                          : Base Media
Codec ID                                : isom (isom/iso2/avc1/mp41)
File size                                : 844 MiB
Duration                                : 2 h 6 min
Overall bit rate                        : 930 kb/s
Writing application                      : Lavf57.71.100

Video
ID                                      : 1
Format                                  : AVC
Format/Info                              : Advanced Video Codec
Format profile                          : High@L3.1
Format settings                          : CABAC / 5 Ref Frames
Format settings, CABAC                  : Yes
Format settings, RefFrames              : 5 frames
Codec ID                                : avc1
Codec ID/Info                            : Advanced Video Coding
Duration                                : 2 h 6 min
Bit rate                                : 861 kb/s
Width                                    : 640 pixels
Height                                  : 272 pixels
Display aspect ratio                    : 2.35:1
Frame rate mode                          : Constant
Frame rate                              : 25.000 FPS
Color space                              : YUV
Chroma subsampling                      : 4:2:0
Bit depth                                : 8 bits
Scan type                                : Progressive
Bits/(Pixel*Frame)                      : 0.198
Stream size                              : 782 MiB (93%)
Writing library                          : x264 core 148 r2643 5c65704
Encoding settings                        : cabac=1 / ref=5 / deblock=1:0:0 / analyse=0x3:0x113 / me=hex / subme=7 / psy=1 / psy_rd=1.00:0.00 / mixed_ref=1 / me_range=16 / chroma_me=1 / trellis=1 / 8x8dct=1 / cqm=0 / deadzone=21,11 / fast_pskip=1 / chroma_qp_offset=-2 / threads=4 / lookahead_threads=4 / sliced_threads=1 / slices=4 / nr=0 / decimate=1 / interlaced=0 / bluray_compat=0 / constrained_intra=0 / bframes=0 / weightp=2 / keyint=250 / keyint_min=25 / scenecut=40 / intra_refresh=0 / rc=crf / mbtree=0 / crf=23.0 / qcomp=0.60 / qpmin=0 / qpmax=69 / qpstep=4 / ip_ratio=1.40 / aq=1:1.00
Language                                : Hindi

Audio
ID                                      : 2
Format                                  : AAC
Format/Info                              : Advanced Audio Codec
Format profile                          : LC
Codec ID                                : mp4a-40-2
Duration                                : 2 h 6 min
Duration_LastFrame                      : -19 ms
Bit rate mode                            : Constant
Bit rate                                : 64.2 kb/s
Channel(s)                              : 2 channels
Channel positions                        : Front: L R
Sampling rate                            : 48.0 kHz
Frame rate                              : 46.875 FPS (1024 SPF)
Compression mode                        : Lossy
Stream size                              : 58.3 MiB (7%)
Language                                : Hindi
Default                                  : Yes
Alternate group                          : 1






https://s1.postimg.org/1axiujn6r3/3948eb44f5203a8f765f7610200a206b.md.png
https://s1.postimg.org/32qhpg8osv/5e6c0ee0a13ee11513e73040d4fb0624.md.png
https://s1.postimg.org/23aeca7fnj/68c0a8192884455eb1021f27249e8f90.md.png
https://s1.postimg.org/1eh4s9gowf/7035c5e605526cee5f093464ecce476e.md.png
https://s1.postimg.org/6f97jtpokv/d83686e2f9deefd8a04949b6da29dca8.md.png" alt="" />











Code:
https://openload.co/f/243iu0z8lQg



Code:
https://bdupload.info/60anr1ioptqh



Code:
http://www.indishare.me/61atlxbstk82



Code:
https://uptobox.com/qupc3zo6x8fx



Code:
https://k2s.cc/file/0080e8e14316c/Backup0.A.Gentleman.2017.1CD.HDRip.x264.By.Rj.Rabasha.mp4



Code:
http://www.mexashare.com/r2kp37sx4n6d/Backup0.A.Gentleman.2017.1CD.HDRip.x264.By.Rj.Rabasha.mp4









Rabasha

Posts : 718
Join date : 2012-12-10

View user profile

Back to top Go down

View previous topic View next topic Back to top

- Similar topics

 
Permissions in this forum:
You cannot reply to topics in this forum