Come as a Guest Stay As a Family::
DeaR Friends
Come as a guest Stay As a Family Radio FM157 is a your music home just listen and enjoying.
Please Join Our Radio FM157 with Song Dedication to Ur Loves , PoeTry, GuPshaP.So Please Register Now

[HTTP] Thupparivaalan (2017) (Tamil) 1CD HDRip x264 ESubs [680MB] 1 Link

View previous topic View next topic Go down

[HTTP] Thupparivaalan (2017) (Tamil) 1CD HDRip x264 ESubs [680MB] 1 Link

Post  Rabasha on Wed Oct 04, 2017 12:35 pm








IMDB:
Code:
http://www.imdb.com/title/tt7190460/

Code:
General
Complete name                            : Thupparivaalan.2017.Tamil.1CD.HDRip.x264.ESubs.mp4
Format                                  : MPEG-4
Format profile                          : Base Media
Codec ID                                : isom (isom/iso2/avc1/mp41)
File size                                : 686 MiB
Duration                                : 2 h 32 min
Overall bit rate                        : 629 kb/s
Writing application                      : Lavf57.71.100

Video
ID                                      : 1
Format                                  : AVC
Format/Info                              : Advanced Video Codec
Format profile                          : High@L2.1
Format settings                          : CABAC / 4 Ref Frames
Format settings, CABAC                  : Yes
Format settings, RefFrames              : 4 frames
Codec ID                                : avc1
Codec ID/Info                            : Advanced Video Coding
Duration                                : 2 h 32 min
Bit rate                                : 557 kb/s
Width                                    : 640 pixels
Height                                  : 272 pixels
Display aspect ratio                    : 2.35:1
Frame rate mode                          : Constant
Frame rate                              : 25.000 FPS
Color space                              : YUV
Chroma subsampling                      : 4:2:0
Bit depth                                : 8 bits
Scan type                                : Progressive
Bits/(Pixel*Frame)                      : 0.128
Stream size                              : 607 MiB (89%)
Writing library                          : x264 core 148 r2744 b97ae06
Encoding settings                        : cabac=1 / ref=3 / deblock=1:0:0 / analyse=0x3:0x113 / me=hex / subme=7 / psy=1 / psy_rd=1.00:0.00 / mixed_ref=1 / me_range=16 / chroma_me=1 / trellis=1 / 8x8dct=1 / cqm=0 / deadzone=21,11 / fast_pskip=1 / chroma_qp_offset=-2 / threads=8 / lookahead_threads=1 / sliced_threads=0 / nr=0 / decimate=1 / interlaced=0 / bluray_compat=0 / constrained_intra=0 / bframes=3 / b_pyramid=2 / b_adapt=1 / b_bias=0 / direct=1 / weightb=1 / open_gop=0 / weightp=2 / keyint=250 / keyint_min=25 / scenecut=40 / intra_refresh=0 / rc_lookahead=40 / rc=2pass / mbtree=1 / bitrate=557 / ratetol=1.0 / qcomp=0.60 / qpmin=0 / qpmax=69 / qpstep=4 / cplxblur=20.0 / qblur=0.5 / ip_ratio=1.40 / aq=1:1.00
Language                                : Tamil

Audio
ID                                      : 2
Format                                  : AAC
Format/Info                              : Advanced Audio Codec
Format profile                          : LC
Codec ID                                : mp4a-40-2
Duration                                : 2 h 32 min
Bit rate mode                            : Constant
Bit rate                                : 64.6 kb/s
Channel(s)                              : 2 channels
Channel positions                        : Front: L R
Sampling rate                            : 44.1 kHz
Frame rate                              : 43.066 FPS (1024 SPF)
Compression mode                        : Lossy
Stream size                              : 70.4 MiB (10%)
Language                                : Tamil
Default                                  : Yes
Alternate group                          : 1
























Code:
https://openload.co/f/IjEz6sDOxgM



Code:
https://bdupload.info/utzvnz9vtmnj



Code:
http://www.indishare.me/hrofl96n7dnf



Code:
http://katfile.com/u47mjnuxvpad/Backup0.Thupparivaalan.2017.Tamil.1CD.HDRip.x264.ESubs.zip.html










Last edited by Rabasha on Wed Nov 01, 2017 7:02 am; edited 1 time in total (Reason for editing : All Links Updated [01-Nov-2017]..........)

Rabasha

Posts : 743
Join date : 2012-12-10

View user profile

Back to top Go down

View previous topic View next topic Back to top

- Similar topics

 
Permissions in this forum:
You cannot reply to topics in this forum