Come as a Guest Stay As a Family::
DeaR Friends
Come as a guest Stay As a Family Radio FM157 is a your music home just listen and enjoying.
Please Join Our Radio FM157 with Song Dedication to Ur Loves , PoeTry, GuPshaP.So Please Register Now

[HTTP] Duvvada Jagannadham (2017) (Hindi Dubbed) 1CD HDRip x264 [850MB] 1 Link

View previous topic View next topic Go down

[HTTP] Duvvada Jagannadham (2017) (Hindi Dubbed) 1CD HDRip x264 [850MB] 1 Link

Post  Rabasha on Wed Oct 04, 2017 11:24 am



IMDB:
Code:
http://www.imdb.com/title/tt6734984/

Code:
General
Unique ID                                : 222078722103193119200622761597619309277 (0xA712CE5BFA78E40CA103C4F1195A8ADD)
Complete name                            : Duvvada.Jagannadham.2017.Hindi.Dubbed.HDRip.x264.850MB.By.Rj.Rabasha.mkv
Format                                   : Matroska
Format version                           : Version 4 / Version 2
File size                                : 862 MiB
Duration                                 : 2 h 27 min
Overall bit rate                         : 819 kb/s
Encoded date                             : UTC 2017-11-03 17:07:52
Writing application                      : mkvmerge v8.1.0 ('Psychedelic Postcard') 64bit
Writing library                          : libebml v1.3.1 + libmatroska v1.4.2

Video
ID                                       : 1
Format                                   : AVC
Format/Info                              : Advanced Video Codec
Format profile                           : Main@L3
Format settings                          : CABAC / 3 Ref Frames
Format settings, CABAC                   : Yes
Format settings, RefFrames               : 3 frames
Codec ID                                 : V_MPEG4/ISO/AVC
Duration                                 : 2 h 27 min
Bit rate                                 : 691 kb/s
Width                                    : 656 pixels
Height                                   : 480 pixels
Display aspect ratio                     : 4:3
Frame rate mode                          : Constant
Frame rate                               : 25.000 FPS
Standard                                 : PAL
Color space                              : YUV
Chroma subsampling                       : 4:2:0
Bit depth                                : 8 bits
Scan type                                : Progressive
Bits/(Pixel*Frame)                       : 0.088
Stream size                              : 727 MiB (84%)
Title                                    : DJ~Duvvada Jagannadham 2017  Hindi  2.0.mkv
Language                                 : Hindi
Default                                  : Yes
Forced                                   : No
Color range                              : Limited

Audio
ID                                       : 2
Format                                   : AAC
Format/Info                              : Advanced Audio Codec
Format profile                           : LC
Codec ID                                 : A_AAC-2
Duration                                 : 2 h 27 min
Bit rate                                 : 126 kb/s
Channel(s)                               : 2 channels
Channel positions                        : Front: L R
Sampling rate                            : 44.1 kHz
Frame rate                               : 43.066 FPS (1024 SPF)
Compression mode                         : Lossy
Stream size                              : 132 MiB (15%)
Title                                    : DJ~Duvvada Jagannadham 2017  Hindi  2.0.mkv
Language                                 : Hindi
Default                                  : Yes
Forced                                   : No

Text
ID                                       : 3
Format                                   : UTF-8
Codec ID                                 : S_TEXT/UTF8
Codec ID/Info                            : UTF-8 Plain Text
Duration                                 : 1 h 0 min
Bit rate                                 : 0 b/s
Count of elements                        : 6
Stream size                              : 149 Bytes (0%)
Default                                  : Yes
Forced                                   : No

















Code:
https://openload.co/f/EXa38XBfSyw



Code:
https://bdupload.info/cbjdv9dftkgz



Code:
http://www.indishare.me/5cadwi9l6axn



Code:
https://uptobox.com/ow6a15vo6w6y










Last edited by Rabasha on Mon Nov 13, 2017 1:34 pm; edited 3 times in total (Reason for editing : links updated [13-Nov-2017]............)

Rabasha

Posts : 743
Join date : 2012-12-10

View user profile

Back to top Go down

Re: [HTTP] Duvvada Jagannadham (2017) (Hindi Dubbed) 1CD HDRip x264 [850MB] 1 Link

Post  Rabasha on Sat Nov 04, 2017 11:51 am

HDRip Hindi Dubbed Updated

Rabasha

Posts : 743
Join date : 2012-12-10

View user profile

Back to top Go down

View previous topic View next topic Back to top

- Similar topics

 
Permissions in this forum:
You cannot reply to topics in this forum