Come as a Guest Stay As a Family::
DeaR Friends
Come as a guest Stay As a Family Radio FM157 is a your music home just listen and enjoying.
Please Join Our Radio FM157 with Song Dedication to Ur Loves , PoeTry, GuPshaP.So Please Register Now

[HTTP] Judwaa 2 (2017) (Hindi) 1CD DVDScr x264 [725MB] 1 Link

View previous topic View next topic Go down

[HTTP] Judwaa 2 (2017) (Hindi) 1CD DVDScr x264 [725MB] 1 Link

Post  Rabasha on Tue Oct 03, 2017 12:02 pm








IMDB:
Code:
http://www.imdb.com/title/tt5456546/

Code:
General
Complete name                            : Judwaa.2.2017.1CD.DVDScr.x264.By.Rj.Rabasha.mp4
Format                                   : MPEG-4
Format profile                           : Base Media
Codec ID                                 : isom (isom/iso2/avc1/mp41)
File size                                : 726 MiB
Duration                                 : 2 h 21 min
Overall bit rate mode                    : Variable
Overall bit rate                         : 716 kb/s
Writing application                      : Lavf57.56.101

Video
ID                                       : 1
Format                                   : AVC
Format/Info                              : Advanced Video Codec
Format profile                           : High@L4.1
Format settings                          : CABAC / 4 Ref Frames
Format settings, CABAC                   : Yes
Format settings, RefFrames               : 4 frames
Codec ID                                 : avc1
Codec ID/Info                            : Advanced Video Coding
Duration                                 : 2 h 21 min
Bit rate mode                            : Variable
Bit rate                                 : 613 kb/s
Maximum bit rate                         : 40.0 Mb/s
Width                                    : 640 pixels
Height                                   : 272 pixels
Display aspect ratio                     : 2.35:1
Frame rate mode                          : Variable
Frame rate                               : 23.976 (24000/1001) FPS
Minimum frame rate                       : 23.564 FPS
Maximum frame rate                       : 24.390 FPS
Color space                              : YUV
Chroma subsampling                       : 4:2:0
Bit depth                                : 8 bits
Scan type                                : Progressive
Bits/(Pixel*Frame)                       : 0.147
Stream size                              : 621 MiB (86%)
Title                                    : FrostSchutz DrC
Writing library                          : x264 core 142 r2431 ac76440
Encoding settings                        : cabac=1 / ref=5 / deblock=1:0:0 / analyse=0x3:0x113 / me=umh / subme=8 / psy=1 / psy_rd=1.00:0.00 / mixed_ref=1 / me_range=16 / chroma_me=1 / trellis=1 / 8x8dct=1 / cqm=0 / deadzone=21,11 / fast_pskip=1 / chroma_qp_offset=-2 / threads=6 / lookahead_threads=1 / sliced_threads=0 / slices=4 / nr=0 / decimate=1 / interlaced=0 / bluray_compat=1 / constrained_intra=0 / bframes=3 / b_pyramid=1 / b_adapt=2 / b_bias=0 / direct=3 / weightb=1 / open_gop=1 / weightp=1 / keyint=24 / keyint_min=1 / scenecut=40 / intra_refresh=0 / rc_lookahead=24 / rc=2pass / mbtree=1 / bitrate=613 / ratetol=1.0 / qcomp=0.60 / qpmin=0 / qpmax=69 / qpstep=4 / cplxblur=20.0 / qblur=0.5 / vbv_maxrate=40000 / vbv_bufsize=30000 / nal_hrd=vbr / filler=0 / ip_ratio=1.40 / aq=1:1.00

Audio
ID                                       : 2
Format                                   : AAC
Format/Info                              : Advanced Audio Codec
Format profile                           : LC
Codec ID                                 : mp4a-40-2
Duration                                 : 2 h 21 min
Bit rate mode                            : Constant
Bit rate                                 : 96.0 kb/s
Channel(s)                               : 2 channels
Channel positions                        : Front: L R
Sampling rate                            : 48.0 kHz
Frame rate                               : 46.875 FPS (1024 SPF)
Compression mode                         : Lossy
Stream size                              : 98.0 MiB (13%)
Title                                    : FrostSchutz DrC
Language                                 : Hindi
Default                                  : Yes
Alternate group                          : 1

















Code:
https://openload.co/f/2MdKRG2poLw



Code:
https://bdupload.info/lb028aioco9c



Code:
http://www.indishare.me/2toisq6f3ixk



Code:
http://katfile.com/62tv7xue83ec/Backup0.Judwaa.2.2017.1CD.DVDScr.x264.By.Rj.Rabasha.mp4.html



Code:
http://www.mexashare.com/7w45hvbohamd/Backup0.Judwaa.2.2017.1CD.DVDScr.x264.By.Rj.Rabasha.mp4








Rabasha

Posts : 718
Join date : 2012-12-10

View user profile

Back to top Go down

View previous topic View next topic Back to top

- Similar topics

 
Permissions in this forum:
You cannot reply to topics in this forum