Come as a Guest Stay As a Family::
DeaR Friends
Come as a guest Stay As a Family Radio FM157 is a your music home just listen and enjoying.
Please Join Our Radio FM157 with Song Dedication to Ur Loves , PoeTry, GuPshaP.So Please Register Now

[HTTP] Ambarsariya (2016) (Punjabi) 1CD DVDScr x264 [700MB] 1 Link

View previous topic View next topic Go down

[HTTP] Ambarsariya (2016) (Punjabi) 1CD DVDScr x264 [700MB] 1 Link

Post  Rabasha on Sat May 14, 2016 6:46 pm







Release Info:
Code:
Ratings: 7.2/10

Genere: Comedy, Family, Music

General
Unique ID : 254048094637501143463619347883164300486 (0xBF1FE21E7C91BDB7AB69426E3EA1F4C6)
Complete name : Ambarsariya (2016) - 1CD - DVDSCR-Rip - Punjabi - x264 - MP3 - M2Tv.mkv
Format : Matroska
Format version : Version 4 / Version 2
File size : 706 MiB
Duration : 2h 14mn
Overall bit rate : 732 Kbps
Encoded date : UTC 2016-04-02 16:03:17
Writing application : mkvmerge v7.9.0 ('Birds') 64bit
Writing library : libebml v1.3.1 + libmatroska v1.4.2

Video
ID : 1
Format : AVC
Format/Info : Advanced Video Codec
Format profile : High@L2.1
Format settings, CABAC : Yes
Format settings, ReFrames : 4 frames
Codec ID : V_MPEG4/ISO/AVC
Duration : 2h 14mn
Bit rate : 650 Kbps
Width : 640 pixels
Height : 272 pixels
Display aspect ratio : 2.35:1
Frame rate mode : Constant
Frame rate : 23.976 fps
Color space : YUV
Chroma subsampling : 4:2:0
Bit depth : 8 bits
Scan type : Progressive
Bits/(Pixel*Frame) : 0.156
Stream size : 615 MiB (87%)
Title : Mafiaking
Language : Panjabi
Default : Yes
Forced : No

Audio
ID : 2
Format : MPEG Audio
Format version : Version 1
Format profile : Layer 3
Mode : Joint stereo
Mode extension : MS Stereo
Codec ID : A_MPEG/L3
Codec ID/Hint : MP3
Duration : 2h 14mn
Bit rate mode : Constant
Bit rate : 80.0 Kbps
Channel(s) : 2 channels
Sampling rate : 32.0 KHz
Compression mode : Lossy
Stream size : 77.2 MiB (11%)
Title : Mafiaking
Writing library : LAME3.99r
Language : Panjabi
Default : Yes
Forced : No

















[700MB] 1 Link
Code:
https://openload.co/f/Bim05q2A2gY/



[700MB] 1 Link
Code:
http://hugefiles.net/5a2k8kha1anx



[700MB] 1 Link
Code:
http://bdupload.org/qp1m32p9yndm



[700MB] 1 Link
Code:
http://www.indishare.me/33n47p5fc72a



[700MB] 1 Link
Code:
http://uptobox.com/6gfdba9igo8l








Rabasha

Posts : 688
Join date : 2012-12-10

View user profile

Back to top Go down

View previous topic View next topic Back to top

- Similar topics

 
Permissions in this forum:
You cannot reply to topics in this forum