Come as a Guest Stay As a Family::
DeaR Friends
Come as a guest Stay As a Family Radio FM157 is a your music home just listen and enjoying.
Please Join Our Radio FM157 with Song Dedication to Ur Loves , PoeTry, GuPshaP.So Please Register Now

[HTTP] Thozha (2016) (Tamil) 1CD TCRip x264 [700MB] 1 Link

View previous topic View next topic Go down

[HTTP] Thozha (2016) (Tamil) 1CD TCRip x264 [700MB] 1 Link

Post  Rabasha on Fri Apr 01, 2016 5:41 pm







Release Info:
General
Format : MPEG-4
Format profile : Base Media
Codec ID : isom
File size : 700 MiB
Duration : 2h 30mn
Overall bit rate : 650 Kbps
Encoded date : UTC 2016-03-25 16:49:42
Tagged date : UTC 2016-03-25 16:49:42

Video
ID : 1
Format : AVC
Format/Info : Advanced Video Codec
Format profile : High@L4.1
Format settings, CABAC : Yes
Format settings, ReFrames : 3 frames
Codec ID : avc1
Codec ID/Info : Advanced Video Coding
Duration : 2h 30mn
Bit rate : 519 Kbps
Maximum bit rate : 3 460 Kbps
Width : 688 pixels
Height : 288 pixels
Display aspect ratio : 2.40:1
Frame rate mode : Constant
Frame rate : 25.000 fps
Color space : YUV
Chroma subsampling : 4:2:0
Bit depth : 8 bits
Scan type : Progressive
Bits/(Pixel*Frame) : 0.105
Stream size : 559 MiB (80%)
Writing library : x264 core 148 r2638 7599210
Encoding settings : cabac=1 / ref=3 / deblock=1:0:0 / analyse=0x3:0x113 / me=hex / subme=7 / psy=1 / psy_rd=1.00:0.15 / mixed_ref=1 / me_range=16 / chroma_me=1 / trellis=1 / 8x8dct=1 / cqm=0 / deadzone=21,11 / fast_pskip=1 / chroma_qp_offset=-3 / threads=6 / lookahead_threads=1 / sliced_threads=0 / nr=0 / decimate=1 / interlaced=0 / bluray_compat=0 / constrained_intra=0 / bframes=3 / b_pyramid=0 / b_adapt=1 / b_bias=0 / direct=1 / weightb=1 / open_gop=0 / weightp=2 / keyint=250 / keyint_min=25 / scenecut=40 / intra_refresh=0 / rc_lookahead=40 / rc=2pass / mbtree=1 / bitrate=519 / ratetol=1.0 / qcomp=0.60 / qpmin=10 / qpmax=51 / qpstep=4 / cplxblur=20.0 / qblur=0.5 / vbv_maxrate=62500 / vbv_bufsize=78125 / nal_hrd=none / filler=0 / ip_ratio=1.40 / aq=1:1.00
Encoded date : UTC 2016-03-25 16:49:42
Tagged date : UTC 2016-03-25 16:50:01

Audio
ID : 2
Format : MPEG Audio
Format version : Version 2
Format profile : Layer 3
Mode : Joint stereo
Mode extension : MS Stereo
Codec ID : .mp3
Duration : 2h 30mn
Bit rate mode : Constant
Bit rate : 128 Kbps
Maximum bit rate : 134 Kbps
Channel(s) : 2 channels
Sampling rate : 22.05 KHz
Compression mode : Lossy
Stream size : 138 MiB (20%)
Writing library : LAME3.99r
Encoding settings : -m j -V 4 -q 2 -lowpass 11 -b 128
Language : English
Encoded date : UTC 2016-03-25 16:49:56
Tagged date : UTC 2016-03-25 16:50:01





















[700MB] 1 Link
Code:
https://openload.co/f/qGvo0XntmoM/



[700MB] 1 Link
Code:
http://hugefiles.net/lcoxg486cdo9



[700MB] 1 Link
Code:
http://bdupload.me/eh34yv9b1zxd



[700MB] 1 Link
Code:
http://www.indishare.co/w98rqtjf9w3n



[700MB] 1 Link
Code:
http://uptobox.com/ru0getv2hsg3








Rabasha

Posts : 686
Join date : 2012-12-10

View user profile

Back to top Go down

View previous topic View next topic Back to top

- Similar topics

 
Permissions in this forum:
You cannot reply to topics in this forum