Come as a Guest Stay As a Family::
DeaR Friends
Come as a guest Stay As a Family Radio FM157 is a your music home just listen and enjoying.
Please Join Our Radio FM157 with Song Dedication to Ur Loves , PoeTry, GuPshaP.So Please Register Now

[HTTP] Sanam Teri Qasam (2016) 720p DVDRip x264 ESubs [1.3GB] 1 Link

View previous topic View next topic Go down

[HTTP] Sanam Teri Qasam (2016) 720p DVDRip x264 ESubs [1.3GB] 1 Link

Post  Rabasha on Fri Mar 18, 2016 4:31 pm







IMDB 7.5/10:
Code:
http://www.imdb.com/title/tt5255710/

Plot:
Sanam Teri Kasam is a 2016 Indian romantic film starring Harshvardhan Rane and Pakistani actress Mawra Hocane. It was directed by the duo Radhika Rao-Vinay Sapru and produced by Deepak Mukut.

Release Info:
Video
ID : 1
Format : AVC
Format/Info : Advanced Video Codec
Format profile : Main@L3.1
Format settings, CABAC : Yes
Format settings, ReFrames : 1 frame
Codec ID : avc1
Codec ID/Info : Advanced Video Coding
Duration : 2h 46mn
Bit rate : 983 Kbps
Nominal bit rate : 1 058 Kbps
Width : 1 280 pixels
Height : 720 pixels
Display aspect ratio : 16:9
Frame rate mode : Constant
Frame rate : 23.976 (24000/1001) fps
Color space : YUV
Chroma subsampling : 4:2:0
Bit depth : 8 bits
Scan type : Progressive
Bits/(Pixel*Frame) : 0.044
Stream size : 1.14 GiB (91%)
Writing library : x264 core 129
Encoded date : UTC 2016-03-17 21:08:15
Tagged date : UTC 2016-03-17 21:08:15

Audio
ID : 2
Format : AAC
Format/Info : Advanced Audio Codec
Format profile : LC
Codec ID : 40
Duration : 2h 46mn
Duration_FirstFrame : 64ms
Bit rate mode : Variable
Bit rate : 96.0 Kbps
Maximum bit rate : 240 Kbps
Channel(s) : 2 channels
Channel(s)_Original : 6 channels
Channel positions : Front: L C R, Side: L R, LFE
Sampling rate : 48.0 KHz
Frame rate : 46.875 fps (1024 spf)
Compression mode : Lossy
Stream size : 114 MiB (9%)
Default : Yes
Alternate group : 1
Encoded date : UTC 2016-03-17 21:08:15
Tagged date : UTC 2016-03-17 21:08:15




















[1.3GB] 720p 2 Link
Code:
https://openload.co/f/mYtg5SMXygg/
https://openload.co/f/ZkiUwa5eVTg/



[1.3GB] 720p 1 Link
Code:
http://hugefiles.net/gbd3ctll8vfp



[1.3GB] 720p 1 Link
Code:
http://bdupload.me/1r3wvgaxkin2



[1.3GB] 720p 1 Link
Code:
http://www.indishare.co/hjhosicwzq4y



[1.3GB] 720p 1 Link
Code:
http://uptobox.com/28ctmvnl1foj









Last edited by Rabasha on Wed Apr 13, 2016 2:31 pm; edited 1 time in total

Rabasha

Posts : 688
Join date : 2012-12-10

View user profile

Back to top Go down

Re: [HTTP] Sanam Teri Qasam (2016) 720p DVDRip x264 ESubs [1.3GB] 1 Link

Post  Rabasha on Tue Apr 12, 2016 6:27 pm

Backup1 Updated

Rabasha

Posts : 688
Join date : 2012-12-10

View user profile

Back to top Go down

View previous topic View next topic Back to top

- Similar topics

 
Permissions in this forum:
You cannot reply to topics in this forum