Come as a Guest Stay As a Family::
DeaR Friends
Come as a guest Stay As a Family Radio FM157 is a your music home just listen and enjoying.
Please Join Our Radio FM157 with Song Dedication to Ur Loves , PoeTry, GuPshaP.So Please Register Now

[OP+3] Crimson Peak (2015) 720p BRRip x264 [1GB] 1 Link

View previous topic View next topic Go down

[OP+3] Crimson Peak (2015) 720p BRRip x264 [1GB] 1 Link

Post  Rabasha on Sat Jan 30, 2016 3:29 pm







IMDB:
Code:
http://www.imdb.com/title/tt1781922/



Code:
IMDb rating: 6.8 (45,544 votes)
RottenTomatoes: 69% 60%
Watch on Solarmovie: Crimson Peak
Playback Media Player: Livestream video Install application
Genre: Horror
Release date: 16 October 2015
Writers: Guillermo del Toro, Matthew Robbins
Director: Guillermo Del Toro
Language: English
Subtitles: English
Cast: Charlie Hunnam, Tom Hiddleston, Jessica Chastain, Mia Wasikowska and others

Plot:
Code:
In the aftermath of a family tragedy, an aspiring author is torn between love for her childhood friend and the temptation of a mysterious outsider. Trying to escape the ghosts of her past, she is swept away to a house that breathes, bleeds...and remembers.

Release Info:
Code:
Format                      : Matroska
Format version              : Version 4 / Version 2
File size                  : 1.04 GiB
Duration                    : 1h 58mn
Overall bit rate            : 1 251 Kbps
Movie name                  : Crimson.Peak.2015.720p.BRRip.1GB.MkvCage
Encoded date                : UTC 2016-01-28 13:06:12
Writing application        : mkvmerge v7.9.0 ('Birds') 32bit
Writing library            : libebml v1.3.1 + libmatroska v1.4.2

Video
ID                          : 1
Format                      : AVC
Format/Info                : Advanced Video Codec
Format profile              : High@L4.1
Format settings, CABAC      : Yes
Format settings, ReFrames  : 9 frames
Codec ID                    : V_MPEG4/ISO/AVC
Duration                    : 1h 58mn
Bit rate                    : 1 150 Kbps
Width                      : 1 280 pixels
Height                      : 688 pixels
Display aspect ratio        : 1.85:1
Frame rate mode            : Constant
Frame rate                  : 23.976 (24000/1001) fps
Color space                : YUV
Chroma subsampling          : 4:2:0
Bit depth                  : 8 bits
Scan type                  : Progressive
Bits/(Pixel*Frame)          : 0.054
Stream size                : 976 MiB (92%)
Writing library            : x264 core 146 r2538 121396c
Encoding settings          : cabac=1 / ref=9 / deblock=1:0:0 / analyse=0x3:0x133 / me=umh / subme=10 / psy=1 / psy_rd=1.00:0.00 / mixed_ref=1 / me_range=24 / chroma_me=1 / trellis=2 / 8x8dct=1 / cqm=0 / deadzone=21,11 / fast_pskip=1 / chroma_qp_offset=-2 / threads=60 / lookahead_threads=5 / sliced_threads=0 / nr=0 / decimate=1 / interlaced=0 / bluray_compat=0 / constrained_intra=0 / bframes=6 / b_pyramid=2 / b_adapt=2 / b_bias=0 / direct=3 / weightb=1 / open_gop=0 / weightp=2 / keyint=240 / keyint_min=23 / scenecut=40 / intra_refresh=0 / rc_lookahead=60 / rc=2pass / mbtree=1 / bitrate=1150 / ratetol=1.0 / qcomp=0.60 / qpmin=10 / qpmax=51 / qpstep=4 / cplxblur=20.0 / qblur=0.5 / vbv_maxrate=62500 / vbv_bufsize=78125 / nal_hrd=none / filler=0 / ip_ratio=1.40 / aq=1:1.00
Default                    : Yes
Forced                      : No

Audio
ID                          : 2
Format                      : AAC
Format/Info                : Advanced Audio Codec
Format profile              : HE-AAC / LC
Codec ID                    : A_AAC
Duration                    : 1h 58mn
Bit rate                    : 99.9 Kbps
Channel(s)                  : 2 channels
Channel positions          : Front: L R
Sampling rate              : 48.0 KHz / 24.0 KHz
Frame rate                  : 23.438 fps (1024 spf)
Compression mode            : Lossy
Delay relative to video    : 31ms
Stream size                : 84.8 MiB (8%)
Language                    : English
Default                    : Yes
Forced                      : No

Text
ID                          : 3
Format                      : UTF-8
Codec ID                    : S_TEXT/UTF8
Codec ID/Info              : UTF-8 Plain Text
Duration                    : 1h 50mn
Bit rate                    : 47 bps
Count of elements          : 1364
Stream size                : 38.5 KiB (0%)
Language                    : English
Default                    : Yes
Forced                      : No

















[700MB] 1 Link
Code:
https://openload.co/f/TcCMk01AAUQ/



[700MB] 1 Link
Code:
http://hugefiles.net/umozxg5ze03s



[700MB] 1 Link
Code:
https://uploadex.com/93advm6p2na6



[700MB] 1 Link
Code:
http://uptobox.com/yu23qjjct3jj








Rabasha

Posts : 718
Join date : 2012-12-10

View user profile

Back to top Go down

View previous topic View next topic Back to top

- Similar topics

 
Permissions in this forum:
You cannot reply to topics in this forum