Come as a Guest Stay As a Family::
DeaR Friends
Come as a guest Stay As a Family Radio FM157 is a your music home just listen and enjoying.
Please Join Our Radio FM157 with Song Dedication to Ur Loves , PoeTry, GuPshaP.So Please Register Now

[OP+5] The 5th Wave (2016) TS x264 [750MB] 1 Link

View previous topic View next topic Go down

[OP+5] The 5th Wave (2016) TS x264 [750MB] 1 Link

Post  Rabasha on Tue Jan 26, 2016 3:24 pm







Code:
Format                                  : Matroska
Format version                          : Version 4 / Version 2
File size                                : 753 MiB
Duration                                : 1h 45mn
Overall bit rate                        : 995 Kbps
Encoded date                            : UTC 2016-01-24 17:14:44
Writing application                      : mkvmerge v8.8.0 ('Wind at my back') 32bit
Writing library                          : libebml v1.3.3 + libmatroska v1.4.4
DURATION                                : 01:45:47.264000000
NUMBER_OF_FRAMES                        : 198352
NUMBER_OF_BYTES                          : 152334336
_STATISTICS_WRITING_APP                  : mkvmerge v8.8.0 ('Wind at my back') 32bit
_STATISTICS_WRITING_DATE_UTC            : 2016-01-24 17:14:44
_STATISTICS_TAGS                        : BPS DURATION NUMBER_OF_FRAMES NUMBER_OF_BYTES

Video
ID                                      : 1
Format                                  : MPEG-4 Visual
Format profile                          : Simple@L1
Format settings, BVOP                    : No
Format settings, QPel                    : No
Format settings, GMC                    : No warppoints
Format settings, Matrix                  : Default (H.263)
Codec ID                                : V_MS/VFW/FOURCC / DIVX
Codec ID/Info                            : Project Mayo
Codec ID/Hint                            : DivX 4
Duration                                : 1h 45mn
Bit rate                                : 784 Kbps
Width                                    : 720 pixels
Height                                  : 480 pixels
Display aspect ratio                    : 3:2
Frame rate mode                          : Constant
Frame rate                              : 29.970 fps
Standard                                : NTSC
Color space                              : YUV
Chroma subsampling                      : 4:2:0
Bit depth                                : 8 bits
Scan type                                : Progressive
Compression mode                        : Lossy
Bits/(Pixel*Frame)                      : 0.076
Stream size                              : 593 MiB (79%)
Writing library                          : Lavc51.40.4
Default                                  : Yes
Forced                                  : No

Audio
ID                                      : 2
Format                                  : AC-3
Format/Info                              : Audio Coding 3
Mode extension                          : CM (complete main)
Format settings, Endianness              : Big
Codec ID                                : A_AC3
Duration                                : 1h 45mn
Bit rate mode                            : Constant
Bit rate                                : 192 Kbps
Channel(s)                              : 2 channels
Channel positions                        : Front: L R
Sampling rate                            : 48.0 KHz
Bit depth                                : 16 bits
Compression mode                        : Lossy
Stream size                              : 145 MiB (19%)
Default                                  : Yes
Forced                                  : No

















[750MB] 1 Link
Code:
http://adf.ly/1VvTz6



[750MB] 1 Link
Code:
http://adf.ly/1VvTzv



[750MB] 1 Link
Code:
http://adf.ly/1VvU1i



[750MB] 1 Link
Code:
http://adf.ly/1VvU2V



[750MB] 1 Link
Code:
http://adf.ly/1VvU3m



[750MB] 1 Link
Code:
http://adf.ly/1VvU4q













Rabasha

Posts : 686
Join date : 2012-12-10

View user profile

Back to top Go down

View previous topic View next topic Back to top

- Similar topics

 
Permissions in this forum:
You cannot reply to topics in this forum