Come as a Guest Stay As a Family::
DeaR Friends
Come as a guest Stay As a Family Radio FM157 is a your music home just listen and enjoying.
Please Join Our Radio FM157 with Song Dedication to Ur Loves , PoeTry, GuPshaP.So Please Register Now

[OP] Tumhe Apna Banane Ka (Hate Story 3) (2015) - WEB-HD [1080p]

View previous topic View next topic Go down

[OP] Tumhe Apna Banane Ka (Hate Story 3) (2015) - WEB-HD [1080p]

Post  Rabasha on Mon Nov 09, 2015 11:23 am








General
Complete name : Hate Story 3 (2015) - Tumhe Apna Banane Ka Feat.Zareen Khan & Sharman Joshi - Untouched WEB-HD - 1080p.mp4
Format : MPEG-4
Format profile : Base Media
Codec ID : isom
File size : 74.3 MiB
Duration : 2mn 59s
Overall bit rate : 3 482 Kbps
Writing application : Lavf56.25.101

Video
ID : 1
Format : AVC
Format/Info : Advanced Video Codec
Format profile : High@L4
Format settings, CABAC : Yes
Format settings, ReFrames : 2 frames
Codec ID : avc1
Codec ID/Info : Advanced Video Coding
Duration : 2mn 59s
Bit rate : 3 352 Kbps
Width : 1 920 pixels
Height : 1 080 pixels
Display aspect ratio : 16:9
Frame rate mode : Constant
Frame rate : 24.000 fps
Color space : YUV
Chroma subsampling : 4:2:0
Bit depth : 8 bits
Scan type : Progressive
Bits/(Pixel*Frame) : 0.067
Stream size : 71.5 MiB (96%)

Audio
ID : 2
Format : AAC
Format/Info : Advanced Audio Codec
Format profile : LC
Codec ID : 40
Duration : 2mn 59s
Bit rate mode : Constant
Bit rate : 126 Kbps
Channel(s) : 2 channels
Channel positions : Front: L R
Sampling rate : 44.1 KHz
Compression mode : Lossy
Stream size : 2.68 MiB (4%)








[75MB] 1080p 1 Link
Code:
http://adf.ly/1RLyxM













Rabasha

Posts : 718
Join date : 2012-12-10

View user profile

Back to top Go down

View previous topic View next topic Back to top

- Similar topics

 
Permissions in this forum:
You cannot reply to topics in this forum