Come as a Guest Stay As a Family::
DeaR Friends
Come as a guest Stay As a Family Radio FM157 is a your music home just listen and enjoying.
Please Join Our Radio FM157 with Song Dedication to Ur Loves , PoeTry, GuPshaP.So Please Register Now

[HTTP] Mission Impossible 5 Rogue Nation (2015) (Hindi) HDTS x264 [1GB] 720p 1 Link + Sample

View previous topic View next topic Go down

[HTTP] Mission Impossible 5 Rogue Nation (2015) (Hindi) HDTS x264 [1GB] 720p 1 Link + Sample

Post  Rabasha on Fri Aug 14, 2015 1:25 pm







IMDB:
Code:
http://www.imdb.com/title/tt2381249/

Code:
:General:


Format : Matroska
Format version : Version 4 / Version 2
File size : 996 MiB
Duration : 2h 3mn
Overall bit rate : 1 126 Kbps


Video


ID : 1
Format : AVC
Format/Info : Advanced Video Codec
Format profile : High@L3.1
Format settings, CABAC : Yes
Format settings, ReFrames : 4 frames
Codec ID : V_MPEG4/ISO/AVC
Duration : 2h 3mn
Bit rate : 900 Kbps
Width : 1 280 pixels
Height : 568 pixels
Display aspect ratio : 2.25:1
Frame rate mode : Constant
Frame rate : 29.970 fps
Color space : YUV
Chroma subsampling : 4:2:0
Bit depth : 8 bits
Scan type : Progressive
Bits/(Pixel*Frame) : 0.041
Stream size : 778 MiB (78%)


Audio


ID : 2
Format : AC-3
Format/Info : Audio Coding 3
Mode extension : CM (complete main)
Format settings, Endianness : Big
Codec ID : A_AC3
Duration : 2h 3mn
Bit rate mode : Constant
Bit rate : 224 Kbps
Channel(s) : 6 channels
Channel positions : Front: L C R, Side: L R, LFE
Sampling rate : 48.0 KHz
Compression mode : Lossy
Delay relative to video : -201ms
Stream size : 198 MiB (20%)
Title : Hindi -={SPARROW}=-
Language : Hindi
























Code:
Sample
http://adf.ly/1Mia8X

[1GB] 720p 1 Link
http://adf.ly/1MiaC7



Code:
Sample
http://adf.ly/1MiaGM

[1GB] 720p 1 Link
http://adf.ly/1MiaMR



Code:
Sample
http://adf.ly/1MiaQe

[1GB] 720p 1 Link
http://adf.ly/1MiaST



Code:
Sample
http://adf.ly/1MiaUS

[1GB] 720p 1 Link
http://adf.ly/1MiaVw



Code:
Sample
http://adf.ly/1MiaXz

[1GB] 720p 1 Link
http://adf.ly/1MiaZR



Code:
Sample
http://adf.ly/1Miaak

[1GB] 720p 1 Link
http://adf.ly/1Miad5














Rabasha

Posts : 688
Join date : 2012-12-10

View user profile

Back to top Go down

View previous topic View next topic Back to top

- Similar topics

 
Permissions in this forum:
You cannot reply to topics in this forum