Come as a Guest Stay As a Family::
DeaR Friends
Come as a guest Stay As a Family Radio FM157 is a your music home just listen and enjoying.
Please Join Our Radio FM157 with Song Dedication to Ur Loves , PoeTry, GuPshaP.So Please Register Now

[HTTP] Ant-Man (2015) HDTS XviD AC3 Studio Audio (Video Cleaned) [1.6GB] 1 Link

View previous topic View next topic Go down

[HTTP] Ant-Man (2015) HDTS XviD AC3 Studio Audio (Video Cleaned) [1.6GB] 1 Link

Post  Rabasha on Wed Aug 05, 2015 7:10 pm







IMDB:
Code:
http://www.imdb.com/title/tt0478970/

Code:
Armed with a super-suit with the astonishing ability to shrink in scale but increase in strength, con-man Scott Lang must embrace his inner hero and help his mentor, Dr. Hank Pym, plan and pull off a heist that will save the world.

Director: Peyton Reed
Writers: Edgar Wright (screenplay), Joe Cornish (screenplay)
Stars: Paul Rudd, Michael Douglas, Corey Stoll
Genres: Action | Sci-Fi
Country: USA
Language: English


Ant-Man.2015.NEW.HDTS.XVID.AC3.HQ.Hive-CM8

Thx Hive

CM8 Doing It Right The First Time

Sources:

Video: Full New HDCAM from Mustang Thx
Mid and After credit scene from JPz Thx

Audio: Sweet Line Big Thx to S4NDM4N



Notes:

the cammer from MI5 was so nice to send me his antman source cam too, thx m8
it has very nice quality, its one single recording, cammed straight,no focus problems,no movements, no heads cut off.
its perfect as it can be, and nothing is cropped on any side, so full angle.
it even features the 3min intro movie upfront, which i think i havent seen on any other release so far.
yep you guessed it no plane scene in this either
oh and Huey, Dewey, and Louie GTFO my uploads


Encode:

video was already nice, only slightly fixed perspective and added brightness and sharpness.
slightly removed a pulsating flicker, and appended the mid-credit scene and the after end credits bonus scene too.
video is now complete

Had Direct Line Audio from S4NDM4n since day 1, but i didnt want to use it for the crappy videos that have been out so far.
Saved it for later. this one will do just fine.
Lipsynced Audio to Video which was easy, it fitted right on it from start to creds.
Had Audio also for the creditscenes so they are also perfect now.

got very nice
enjoy

Video: 720x368 @bitrate 1800 2pass
Audio: English AC3 Direct Line Stereo 2.0
Sample: yes included

PS:

to MI5, there was a bonus intro upfront "the plane scene"
noticed too late that it was missing, will fix that. sorry
i already have the plane scene in hd, but i wanna do a nice complete 720p Version from the Source Files for MI5 asap.
will take a day though
stay tuned

PS2:

need line audio for pixels, if anyone has it please msg me
thx
you can get full cams you know a cammer that does great quality stuff msg me, together we can make a nice TS

General
Complete name : Ant-Man.2015.NEW.HDTS.XVID.AC3.HQ.Hive-CM8.avi
Format : AVI
Format/Info : Audio Video Interleave
File size : 1.58 GiB
Duration : 1h 48mn
Overall bit rate : 2 074 Kbps
Writing application : Nandub v1.0rc2
Writing library : Nandub build 1853/release

Video
ID : 0
Format : MPEG-4 Visual
Format profile : Advanced Simple@L5
Format settings, BVOP : 2
Format settings, QPel : Yes
Format settings, GMC : No warppoints
Format settings, Matrix : Default (H.263)
Muxing mode : Packed bitstream
Codec ID : XVID
Codec ID/Hint : XviD
Duration : 1h 48mn
Bit rate : 1 808 Kbps
Width : 720 pixels
Height : 368 pixels
Display aspect ratio : 1.957
Frame rate : 25.000 fps
Color space : YUV
Chroma subsampling : 4:2:0
Bit depth : 8 bits
Scan type : Progressive
Compression mode : Lossy
Bits/(Pixel*Frame) : 0.273
Stream size : 1.38 GiB (87%)
Writing library : XviD 1.2.1 (UTC 2008-12-04)

Audio
ID : 1
Format : AC-3
Format/Info : Audio Coding 3
Mode extension : CM (complete main)
Format settings, Endianness : Big
Codec ID : 2000
Duration : 1h 48mn
Bit rate mode : Constant
Bit rate : 256 Kbps
Channel(s) : 2 channels
Channel positions : Front: L R
Sampling rate : 48.0 KHz
Bit depth : 16 bits
Compression mode : Lossy
Delay relative to video : 50ms
Stream size : 200 MiB (12%)
Alignment : Split accross interleaves
Interleave, duration : 40 ms (1.00 video frame)
Interleave, preload duration : 500 ms




















[1.6GB] 1 Link
Code:
http://adf.ly/1M7ZxT



[1.6GB] 1 Link
Code:
http://adf.ly/1MrRKA



[1.6GB] 1 Link
Code:
http://adf.ly/1NcvS5



[1.6GB] 1 Link
Code:
http://adf.ly/1NIL7b














Rabasha

Posts : 717
Join date : 2012-12-10

View user profile

Back to top Go down

View previous topic View next topic Back to top

- Similar topics

 
Permissions in this forum:
You cannot reply to topics in this forum