Come as a Guest Stay As a Family::
DeaR Friends
Come as a guest Stay As a Family Radio FM157 is a your music home just listen and enjoying.
Please Join Our Radio FM157 with Song Dedication to Ur Loves , PoeTry, GuPshaP.So Please Register Now

[HTTP] Mission Impossible 5 Rogue Nation (2015) HDTS XviD AC3 [1.8GB] 1 Link

View previous topic View next topic Go down

[HTTP] Mission Impossible 5 Rogue Nation (2015) HDTS XviD AC3 [1.8GB] 1 Link

Post  Rabasha on Mon Aug 03, 2015 2:26 pm







IMDB:
Code:
http://www.imdb.com/title/tt2381249/



Code:
Audio : CM8 THNX
Format : AVI
Format/Info : Audio Video Interleave
File size : 1.77 GiB
Duration : 1h 59mn
Overall bit rate : 2 117 Kbps
Writing library : VirtualDub build 35491/release
Encoder : MURD3R

Video
ID : 0
Format : MPEG-4 Visual
Format profile : Advanced Simple@L5
Format settings, BVOP : 2
Format settings, QPel : No
Format settings, GMC : No warppoints
Format settings, Matrix : Default (H.263)
Muxing mode : Packed bitstream
Codec ID : XVID
Codec ID/Hint : XviD
Duration : 1h 59mn
Bit rate : 1 849 Kbps
Width : 720 pixels
Height : 360 pixels
Display aspect ratio : 2.000
Frame rate : 29.970 fps
Color space : YUV
Chroma subsampling : 4:2:0
Bit depth : 8 bits
Scan type : Progressive
Compression mode : Lossy
Bits/(Pixel*Frame) : 0.238
Stream size : 1.54 GiB (87%)
Writing library : XviD 67

Audio
ID : 1
Format : AC-3
Format/Info : Audio Coding 3
Mode extension : CM (complete main)
Format settings, Endianness : Big
Codec ID : 2000
Duration : 1h 59mn
Bit rate mode : Constant
Bit rate : 256 Kbps
Channel(s) : 2 channels
Channel positions : Front: L R
Sampling rate : 48.0 KHz
Compression mode : Lossy
Stream size : 219 MiB (12%)
Alignment : Split accross interleaves
Interleave, duration : 33 ms (1.00 video frame)
Interleave, preload duratio : 500 ms





















[1.8GB] 1 Link
Code:
http://adf.ly/1LyI2S



[1.8GB] 1 Link
Code:
http://adf.ly/1LyI5k



[1.8GB] 1 Link
Code:
http://adf.ly/1LyI8d



[1.8GB] 1 Link
Code:
http://adf.ly/1LyIBo



[1.8GB] 1 Link
Code:
http://adf.ly/1LyIDp














Rabasha

Posts : 688
Join date : 2012-12-10

View user profile

Back to top Go down

View previous topic View next topic Back to top

- Similar topics

 
Permissions in this forum:
You cannot reply to topics in this forum