Come as a Guest Stay As a Family::
DeaR Friends
Come as a guest Stay As a Family Radio FM157 is a your music home just listen and enjoying.
Please Join Our Radio FM157 with Song Dedication to Ur Loves , PoeTry, GuPshaP.So Please Register Now

[HTTP] Baahubali (2015) [Hindi-Telugu] 1CD DVDScr x264 [750MB] 1 Link

View previous topic View next topic Go down

[HTTP] Baahubali (2015) [Hindi-Telugu] 1CD DVDScr x264 [750MB] 1 Link

Post  Rabasha on Wed Jul 15, 2015 1:45 pm







IMDB:
Code:
http://www.imdb.com/title/tt2631186/



General
Unique ID : 227004501938166562170871633881312316434 (0xAAC77A0E3603932FB4094E1D3778CC12)
Complete name : Bahubali (2015) -1CD - DVDSCR-Rip - [Hindi+Telugu] - x264 - MP3 - Mafiaking - M2Tv.mkv
Format : Matroska
Format version : Version 4 / Version 2
File size : 751 MiB
Duration : 2h 29mn
Overall bit rate : 705 Kbps
Movie name : Bahubali (2015) -1CD - DVDSCR-Rip - [Hindi+Telugu] - x264 - MP3 - Mafiaking - M2Tv
Encoded date : UTC 2015-07-12 19:14:36
Writing application : mkvmerge v8.1.0 ('Psychedelic Postcard') 32bit
Writing library : libebml v1.3.1 + libmatroska v1.4.2

Video
ID : 1
Format : AVC
Format/Info : Advanced Video Codec
Format profile : High@L3
Format settings, CABAC : Yes
Format settings, ReFrames : 4 frames
Codec ID : V_MPEG4/ISO/AVC
Duration : 2h 29mn
Bit rate : 590 Kbps
Width : 640 pixels
Height : 272 pixels
Display aspect ratio : 2.35:1
Frame rate mode : Constant
Frame rate : 30.000 fps
Color space : YUV
Chroma subsampling : 4:2:0
Bit depth : 8 bits
Scan type : Progressive
Bits/(Pixel*Frame) : 0.113
Stream size : 617 MiB (82%)
Title : Mafiaking
Language : Hindi
Default : Yes
Forced : No

Audio #1
ID : 2
Format : MPEG Audio
Format version : Version 2
Format profile : Layer 3
Mode : Joint stereo
Mode extension : MS Stereo
Codec ID : A_MPEG/L3
Codec ID/Hint : MP3
Duration : 2h 29mn
Bit rate mode : Constant
Bit rate : 56.0 Kbps
Channel(s) : 2 channels
Sampling rate : 22.05 KHz
Compression mode : Lossy
Stream size : 59.7 MiB (8%)
Title : Mafiaking
Writing library : LAME3.99r
Language : Hindi
Default : Yes
Forced : No

Audio #2
ID : 3
Format : MPEG Audio
Format version : Version 2
Format profile : Layer 3
Mode : Joint stereo
Mode extension : MS Stereo
Codec ID : A_MPEG/L3
Codec ID/Hint : MP3
Duration : 2h 29mn
Bit rate mode : Constant
Bit rate : 56.0 Kbps
Channel(s) : 2 channels
Sampling rate : 24.0 KHz
Compression mode : Lossy
Stream size : 59.7 MiB (8%)
Title : Mafiaking
Language : Telugu
Default : No
Forced : No































[750MB] 1 Link
Code:
http://adf.ly/1KqvKs



[750MB] 1 Link
Code:
http://adf.ly/1KqvNM



[750MB] 1 Link
Code:
http://adf.ly/1KqvOk



[750MB] 1 Link
Code:
http://adf.ly/1KqvQN














Rabasha

Posts : 688
Join date : 2012-12-10

View user profile

Back to top Go down

View previous topic View next topic Back to top

- Similar topics

 
Permissions in this forum:
You cannot reply to topics in this forum