Come as a Guest Stay As a Family::
DeaR Friends
Come as a guest Stay As a Family Radio FM157 is a your music home just listen and enjoying.
Please Join Our Radio FM157 with Song Dedication to Ur Loves , PoeTry, GuPshaP.So Please Register Now

[HTTP] Hero Naam Yaad Rakhi (2015) (Punjabi) PDVD [695MB] 1 L

View previous topic View next topic Go down

[HTTP] Hero Naam Yaad Rakhi (2015) (Punjabi) PDVD [695MB] 1 L

Post  Rabasha on Sat Jul 11, 2015 6:58 pm







RELEASENOTES
Code:
Movie:............Hero Naam Yaad Rakhi
Source: ..........PreDVD @ M2TV
Year:.............2015

General
Complete name                            : D:\Hero Naam Yaad Rakhi.avi
Format                                  : AVI
Format/Info                              : Audio Video Interleave
File size                                : 696 MiB
Duration                                : 1h 32mn
Overall bit rate                        : 1 049 Kbps

Video
ID                                      : 0
Format                                  : MPEG-4 Visual
Format profile                          : Advanced Simple@L5
Format settings, BVOP                    : 2
Format settings, QPel                    : No
Format settings, GMC                    : No warppoints
Format settings, Matrix                  : Default (H.263)
Codec ID                                : XVID
Codec ID/Hint                            : XviD
Duration                                : 1h 32mn
Bit rate                                : 946 Kbps
Width                                    : 640 pixels
Height                                  : 288 pixels
Display aspect ratio                    : 2.222
Frame rate                              : 29.970 fps
Color space                              : YUV
Chroma subsampling                      : 4:2:0
Bit depth                                : 8 bits
Scan type                                : Progressive
Compression mode                        : Lossy
Bits/(Pixel*Frame)                      : 0.171
Stream size                              : 628 MiB (90%)
Writing library                          : XviD 1.2.1 (UTC 2008-12-04)

Audio
ID                                      : 1
Format                                  : MPEG Audio
Format version                          : Version 1
Format profile                          : Layer 3
Codec ID                                : 55
Codec ID/Hint                            : MP3
Duration                                : 1h 32mn
Bit rate mode                            : Constant
Bit rate                                : 96.0 Kbps
Channel(s)                              : 2 channels
Sampling rate                            : 48.0 KHz
Compression mode                        : Lossy
Stream size                              : 63.7 MiB (9%)
Alignment                                : Aligned on interleaves
Interleave, duration                    : 133 ms (4.00 video frames)
Interleave, preload duration            : 216 ms
Title                                    : Hero T01 2_0ch 192Kbps DELAY 0ms
Writing library                          : LAME3.98r
Encoding settings                        : -m s -V 4 -q 3 -lowpass 15.1 -b 96




















[695MB] 1 Link
Code:
http://adf.ly/1KcNjS



[695MB] 1 Link
Code:
http://adf.ly/1KcNkl



[695MB] 1 Link
Code:
http://adf.ly/1KcNmI














Rabasha

Posts : 686
Join date : 2012-12-10

View user profile

Back to top Go down

View previous topic View next topic Back to top

- Similar topics

 
Permissions in this forum:
You cannot reply to topics in this forum