Come as a Guest Stay As a Family::
DeaR Friends
Come as a guest Stay As a Family Radio FM157 is a your music home just listen and enjoying.
Please Join Our Radio FM157 with Song Dedication to Ur Loves , PoeTry, GuPshaP.So Please Register Now

[HTTP] Wild Wild World: Tiger Wars (2015) HDTV x264 [1.25GB]

View previous topic View next topic Go down

[HTTP] Wild Wild World: Tiger Wars (2015) HDTV x264 [1.25GB]

Post  Rabasha on Thu Jun 04, 2015 9:11 am







Code:
National Geographic - Wild Wild World: Tiger Wars (2015)
HDTV | 1280x720 | .MKV/AVC @ 3623 Kbps | 43mn 49s | Audio: English AC3 384 kbps, 2 channels | Subs: None | 1.25 GiB
Genre: Documentary
"In the heart of India, a tiger family battles for dominance in the ruins of a lost empire. B1, a young tiger, challenges his aging grandfather for supremacy over their pride land, taking advantage of his slowed reflexes and struggling vision. Meanwhile, B1's mother tries to keep the peace for her new cubs during their risky first years of life, and for her father, who is becoming increasingly helpless. But B1 is bent on taking over and starting his own dynasty deep in the heart of ancient India."

General
Unique ID
: 26993842431387800641331745794802012578 (0x144ED32F9CF345570C719ADE3F4B51A2)
Complete name : nat.geo.wild.wild.world.tiger.wars.mkv
Format
: Matroska
Format version : Version 4 / Version 2
File size
: 1.25 GiB
Duration
: 43mn 49s
Overall bit rate : 4 098 Kbps

Video
ID : 1
Format
: AVC
Format/Info
: Advanced Video Codec
Format profile : High@L4.1
Format settings, CABAC : Yes
Format settings, ReFrames : 8 frames
Codec ID
: V_MPEG4/ISO/AVC
Duration
: 43mn 49s
Bit rate
: 3 632 Kbps
Width
: 1 280 pixels
Height
: 720 pixels
Display aspect ratio : 16:9
Frame rate
: 25.000 fps
Color space
: YUV
Chroma subsampling

: 4:2:0
Bit depth
: 8 bits
Scan type
: Progressive
Bits/(Pixel*Frame)

: 0.158
Stream size
: 1.11 GiB (89%)
Writing library : x264 core 146 r2538 121396c
Encoding settings: cabac=1 / ref=8 / deblock=1:0:0 / analyse=0x3:0x113 / me=umh / subme=9 / psy=1 / psy_rd=1.00:0.00 / mixed_ref=1 / me_range=16 / chroma_me=1 / trellis=1 / 8x8dct=1 / cqm=0 / deadzone=21,11 / fast_pskip=0 / chroma_qp_offset=-2 / threads=12 / lookahead_threads=1 / sliced_threads=0 / nr=0 / decimate=1 / interlaced=0 / bluray_compat=0 / constrained_intra=0 / bframes=3 / b_pyramid=2 / b_adapt=2 / b_bias=0 / direct=3 / weightb=1 / open_gop=0 / weightp=2 / keyint=250 / keyint_min=25 / scenecut=40 / intra_refresh=0 / rc_lookahead=50 / rc=crf / mbtree=1 / crf=20.0 / qcomp=0.60 / qpmin=0 / qpmax=69 / qpstep=4 / ip_ratio=1.40 / aq=1:1.00
Language
: English
Default
: Yes
Forced
: No

Audio
ID : 2
Format
: AC-3
Format/Info
: Audio Coding 3
Mode extension : CM (complete main)
Format settings, Endianness : Big
Codec ID
: A_AC3
Duration
: 43mn 49s
Bit rate mode : Constant
Bit rate
: 384 Kbps
Channel(s)
: 2 channels
Channel positions: Front: L R
Sampling rate : 48.0 KHz
Bit depth
: 16 bits
Compression mode : Lossy
Stream size
: 120 MiB (9%)
Default
: Yes
Forced
: No















[255MB Each Part]
Code:
http://adf.ly/1IHbpe
http://adf.ly/1IHbpf
http://adf.ly/1IHbpg
http://adf.ly/1IHbph
http://adf.ly/1IHbpi
http://adf.ly/1IHbpj



[255MB Each Part]
Code:
http://adf.ly/1IHbtr
http://adf.ly/1IHbts
http://adf.ly/1IHbtt
http://adf.ly/1IHbtu
http://adf.ly/1IHbtw
http://adf.ly/1IHbtx



[255MB Each Part]
Code:
http://adf.ly/1IHbxN
http://adf.ly/1IHbxP
http://adf.ly/1IHbxQ
http://adf.ly/1IHbxR
http://adf.ly/1IHbxS
http://adf.ly/1IHbxT













Rabasha

Posts : 686
Join date : 2012-12-10

View user profile

Back to top Go down

View previous topic View next topic Back to top

- Similar topics

 
Permissions in this forum:
You cannot reply to topics in this forum