Come as a Guest Stay As a Family::
DeaR Friends
Come as a guest Stay As a Family Radio FM157 is a your music home just listen and enjoying.
Please Join Our Radio FM157 with Song Dedication to Ur Loves , PoeTry, GuPshaP.So Please Register Now

[HTTP] San Andreas (2015) V2 XviD AC3 [1.5GB] 1 Link

View previous topic View next topic Go down

[HTTP] San Andreas (2015) V2 XviD AC3 [1.5GB] 1 Link

Post  Rabasha on Wed Jun 03, 2015 6:42 pm







IMDB:
Code:
http://www.imdb.com/title/tt2126355/

Code:
RELEASENOTES:
Complete name                  : San.Andreas.2015.CAM.HQ-Mic.XVID.AC3.Hive-CM8.avi
Format                        : AVI
Format/Info                    : Audio Video Interleave
File size                      : 1.48 GiB
Duration                      : 1h 47mn
Overall bit rate              : 1 967 Kbps
Writing application            : Nandub v1.0rc2
Writing library                : Nandub build 1853/release

Video
ID                            : 0
Format                        : MPEG-4 Visual
Format profile                : Advanced Simple@L5
Format settings, BVOP          : 2
Format settings, QPel          : Yes
Format settings, GMC          : No warppoints
Format settings, Matrix        : Default (H.263)
Muxing mode                    : Packed bitstream
Codec ID                      : XVID
Codec ID/Hint                  : XviD
Duration                      : 1h 47mn
Bit rate                      : 1 700 Kbps
Width                          : 720 pixels
Height                        : 304 pixels
Display aspect ratio          : 2.35:1
Frame rate                    : 29.970 fps
Color space                    : YUV
Chroma subsampling            : 4:2:0
Bit depth                      : 8 bits
Scan type                      : Progressive
Compression mode              : Lossy
Bits/(Pixel*Frame)            : 0.259
Stream size                    : 1.28 GiB (86%)
Writing library                : XviD 1.2.1 (UTC 2008-12-04)

Audio
ID                            : 1
Format                        : AC-3
Format/Info                    : Audio Coding 3
Mode extension                : CM (complete main)
Format settings, Endianness    : Big
Codec ID                      : 2000
Duration                      : 1h 47mn
Bit rate mode                  : Constant
Bit rate                      : 256 Kbps
Channel(s)                    : 2 channels
Channel positions              : Front: L R
Sampling rate                  : 48.0 KHz
Bit depth                      : 16 bits
Compression mode              : Lossy
Stream size                    : 197 MiB (13%)
Alignment                      : Split accross interleaves
Interleave, duration          : 33 ms (1.00 video frame)
Interleave, preload duration  : 500 ms



















[1.5GB] 1 Link
Code:
http://adf.ly/1IGLVn



[1.5GB] 1 Link
Code:
http://adf.ly/1IGLX1













Rabasha

Posts : 717
Join date : 2012-12-10

View user profile

Back to top Go down

View previous topic View next topic Back to top

- Similar topics

 
Permissions in this forum:
You cannot reply to topics in this forum