Come as a Guest Stay As a Family::
DeaR Friends
Come as a guest Stay As a Family Radio FM157 is a your music home just listen and enjoying.
Please Join Our Radio FM157 with Song Dedication to Ur Loves , PoeTry, GuPshaP.So Please Register Now

[HGF/TMT] Action Jackson (2014) 1CD DVDScr x264 [700MB] 1 Link

View previous topic View next topic Go down

[HGF/TMT] Action Jackson (2014) 1CD DVDScr x264 [700MB] 1 Link

Post  Rabasha on Sat Dec 06, 2014 5:19 pm







Unique ID : 249928987419631623164846107790249827061 (0xBC0692741BF0D56AB8C6EC89B9F81AF5)
Complete name : Action Jackson (2014) - 1CD - DVDSCR-Rip - Hindi - x264 - MP3 - Mafiaking - Team TellyTNT.mkv
Format : Matroska
Format version : Version 4 / Version 2
File size : 699 MiB
Duration : 2h 26mn
Overall bit rate : 666 Kbps
Movie name : Action Jackson (2014) - 1CD - DVDSCR-Rip - Hindi - x264 - MP3 - Mafiaking - Team TellyTNT
Encoded date : UTC 2014-12-05 16:36:01
Writing application : mkvmerge v7.0.0 ('Where We Going') 64bit built on Jun 9 2014 15:16:27
Writing library : libebml v1.3.0 + libmatroska v1.4.1


Video
ID : 1
Format : AVC
Format/Info : Advanced Video Codec
Format profile : High@L4.1
Format settings, CABAC : Yes
Format settings, ReFrames : 4 frames
Codec ID : V_MPEG4/ISO/AVC
Duration : 2h 26mn
Bit rate : 600 Kbps
Width : 640 pixels
Height : 272 pixels
Display aspect ratio : 2.35:1
Frame rate mode : Constant
Frame rate : 23.976 fps
Color space : YUV
Chroma subsampling : 4:2:0
Bit depth : 8 bits
Scan type : Progressive
Bits/(Pixel*Frame) : 0.144
Stream size : 618 MiB (88%)
Title : Mafiaking
Language : Hindi
Default : Yes
Forced : No


Audio
ID : 2
Format : MPEG Audio
Format version : Version 2
Format profile : Layer 3
Mode : Joint stereo
Mode extension : MS Stereo
Codec ID : A_MPEG/L3
Codec ID/Hint : MP3
Duration : 2h 26mn
Bit rate mode : Constant
Bit rate : 64.0 Kbps
Channel(s) : 2 channels
Sampling rate : 24.0 KHz
Compression mode : Lossy
Stream size : 67.2 MiB (10%)
Title : Mafiaking
Writing library : LAME3.99r
Language : Hindi
Default : Yes
Forced : No

























Code:
http://sh.st/iQXnO



Code:
http://sh.st/iQXQp








Rabasha

Posts : 686
Join date : 2012-12-10

View user profile

Back to top Go down

View previous topic View next topic Back to top

- Similar topics

 
Permissions in this forum:
You cannot reply to topics in this forum