Come as a Guest Stay As a Family::
DeaR Friends
Come as a guest Stay As a Family Radio FM157 is a your music home just listen and enjoying.
Please Join Our Radio FM157 with Song Dedication to Ur Loves , PoeTry, GuPshaP.So Please Register Now

[HTTP] Happy Ending (2014) 1CD DVDScr x264 [700MB] 1 Link

View previous topic View next topic Go down

[HTTP] Happy Ending (2014) 1CD DVDScr x264 [700MB] 1 Link

Post  Rabasha on Fri Nov 21, 2014 2:18 pm








General
Complete name : D:\Torrent Completed\Happy.Ending.2014.1CD.x264.SAP.DVDSCR.Rip-MP3-Telly.Exclusive\Happy.Ending.2014.1CD.x264.SAP.DVDSCR.Rip-MP3-Telly.Exclusive.mp4
Format : MPEG-4
Format profile : Base Media
Codec ID : isom
File size : 697 MiB
Duration : 2h 13mn
Overall bit rate : 732 Kbps
Encoded date : UTC 2014-11-21 13:07:47
Tagged date : UTC 2014-11-21 13:07:47

Video
ID : 1
Format : AVC
Format/Info : Advanced Video Codec
Format profile : Main@L3.1
Format settings, CABAC : Yes
Format settings, ReFrames : 3 frames
Codec ID : avc1
Codec ID/Info : Advanced Video Coding
Duration : 2h 13mn
Bit rate : 653 Kbps
Maximum bit rate : 5 781 Kbps
Width : 640 pixels
Height : 272 pixels
Display aspect ratio : 2.35:1
Frame rate mode : Constant
Frame rate : 25.000 fps
Color space : YUV
Chroma subsampling : 4:2:0
Bit depth : 8 bits
Scan type : Progressive
Bits/(Pixel*Frame) : 0.150
Stream size : 619 MiB (89%)
Writing library : x264 core 142 r2431 ac76440
Encoding settings : cabac=1 / ref=3 / deblock=1:-1:-1 / analyse=0x1:0x111 / me=hex / subme=6 / psy=1 / psy_rd=1.00:0.15 / mixed_ref=1 / me_range=16 / chroma_me=1 / trellis=2 / 8x8dct=0 / cqm=0 / deadzone=21,11 / fast_pskip=1 / chroma_qp_offset=-3 / threads=48 / lookahead_threads=2 / sliced_threads=0 / nr=0 / decimate=1 / interlaced=0 / bluray_compat=0 / constrained_intra=0 / bframes=3 / b_pyramid=0 / b_adapt=2 / b_bias=0 / direct=2 / weightb=1 / open_gop=0 / weightp=2 / keyint=240 / keyint_min=24 / scenecut=48 / intra_refresh=0 / rc_lookahead=48 / rc=abr / mbtree=1 / bitrate=653 / ratetol=1.0 / qcomp=0.60 / qpmin=0 / qpmax=69 / qpstep=4 / vbv_maxrate=14000 / vbv_bufsize=14000 / nal_hrd=none / filler=0 / ip_ratio=1.40 / aq=1:1.00
Encoded date : UTC 2014-11-21 11:59:43
Tagged date : UTC 2014-11-21 13:07:50
Color primaries : BT.601 NTSC
Transfer characteristics : BT.601
Matrix coefficients : BT.601

Audio
ID : 2
Format : MPEG Audio
Format version : Version 1
Format profile : Layer 3
Mode : Joint stereo
Mode extension : MS Stereo
Codec ID : 6B
Duration : 2h 13mn
Bit rate mode : Constant
Bit rate : 80.0 Kbps
Maximum bit rate : 83.5 Kbps
Channel count : 2 channels
Sampling rate : 32.0 KHz
Compression mode : Lossy
Stream size : 76.1 MiB (11%)
Writing library : LAME3.99r
Encoding settings : -m j -V 4 -q 2 -lowpass 13.5 -b 80
Encoded date : UTC 2014-11-21 13:07:49
Tagged date : UTC 2014-11-21 13:07:50





















Code:
http://adf.ly/uSRwf




Code:
http://adf.ly/uSRxm




Code:
http://adf.ly/uSRz0








Rabasha

Posts : 718
Join date : 2012-12-10

View user profile

Back to top Go down

View previous topic View next topic Back to top

- Similar topics

 
Permissions in this forum:
You cannot reply to topics in this forum